请选择 进入手机版 | 继续访问电脑版
本站原来Q群已取消,请原Q群会员和其他未入群会员加原盘天堂新官方QQ群713428235【盘盘多】,验证信息填写您在论坛的会员名,不填会员名的无法入群哈,进群后修改您的群名片名字为您在论坛的会员名,请务必修改,否则群成员多了不知道您是哪个会员。

原盘天堂

 找回密码
 立即注册
查看: 65|回复: 4

2d蓝光原盘bdmv 陨落 英语原版 falling.2020.1080p.bluray.avc.dts-hd.ma.5.1[22.35 GB]

[复制链接]

5672

主题

6261

帖子

131万

积分

管理员

Rank: 18Rank: 18Rank: 18Rank: 18Rank: 18

积分
1317976
发表于 2021-2-17 19:58:05 | 显示全部楼层 |阅读模式






陨落 Falling (2020)

导演: 维果·莫腾森
编剧: 维果·莫腾森
主演: 维果·莫腾森 / 兰斯·亨利克森 / 斯瓦利尔·古德纳松 / 劳拉·琳妮 / 亨利·莫腾森 / 更多...
类型: 剧情
制片国家/地区: 加拿大 / 英国 / 丹麦
语言: 英语 / 西班牙语
上映日期: 2020-01-31(圣丹斯电影节) / 2021-02-05(美国)
片长: 112分钟
又名: 坠落

豆瓣评分
7.0
97人评价
5星 9.1%
4星 42.0%
3星 40.9%
2星 8.0%
1星 0.0%

剧情简介 · · · · · ·
  外人眼中顽固、老朽、暴躁、恐同、把爱和好意推开的父亲,尽力与他相处的儿子。看起来是一个纠结、熟悉和让人鼻酸的故事。
  维果也是该片编剧&主演,影片聚焦”一个儿子与老去的父亲的关系,是一个私人的故事”:John(莫滕森)与自己的同性伴侣Eric和养女Monica一起生活在南加州,一次,他退休了的农民父亲Willis(兰斯·亨利克森)找上门来,要跟儿子住一段时间,父亲那更为传统、家庭化的世界与儿子的世界产生了碰撞。

陨落 Falling 获奖情况
第73届戛纳电影节  (2020)
新长片导演作品(提名)
第33届欧洲电影奖  (2020)
最佳男主角(提名) 维果·莫腾森
第35届西班牙戈雅奖  (2021)
最佳欧洲电影(提名)
第45届多伦多国际电影节  (2020)
最佳加拿大电影(提名) 维果·莫腾森

DISC INFO:

Disc Title:     Falling.2020.1080p.BluRay.AVC.DTS-HD.MA.5.1-NOGRP
Disc Size:      24,002,604,932 bytes
Protection:     AACS
BDInfo:         0.7.5.9 (compatible layout created by DVDFab 12.0.1.8)

PLAYLIST REPORT:

Name:                   00009.MPLS  
Length:                 1:52:30.000 (h:m:s.ms)
Size:                   23,337,033,024 bytes
Total Bitrate:          27.66 Mbps

VIDEO:

Codec                   Bitrate             Description     
-----                   -------             -----------     
MPEG-4 AVC Video        18001 kbps          1080p / 24 fps / 16:9 / High Profile 4.1

AUDIO:

Codec                           Language        Bitrate         Description     
-----                           --------        -------         -----------     
DTS-HD Master Audio             Spanish         3198 kbps       5.1 / 48 kHz / 3198 kbps / 24-bit (DTS Core: 5.1 / 48 kHz / 768 kbps / 24-bit)
DTS-HD Master Audio             English         3089 kbps       5.1 / 48 kHz / 3089 kbps / 24-bit (DTS Core: 5.1 / 48 kHz / 768 kbps / 24-bit)
LPCM Audio                      Spanish         1536 kbps       2.0 / 48 kHz / 1536 kbps / 16-bit

SUBTITLES:

Codec                           Language        Bitrate         Description     
-----                           --------        -------         -----------     
Presentation Graphics           Spanish         30.916 kbps                     
Presentation Graphics           English         0.177 kbps                     
Presentation Graphics           Spanish         35.657 kbps   

Video
ID : 1
ID in the original source medium : 4113 (0x1011)
Format : AVC
Format/Info : Advanced Video Codec
Format profile : [email protected]
Format settings : CABAC / 4 Ref Frames
Format settings, CABAC : Yes
Format settings, Reference frames : 4 frames
Format settings, GOP : M=3, N=24
Codec ID : V_MPEG4/ISO/AVC
Duration : 1 h 52 min
Bit rate mode : Variable
Bit rate : 18.0 Mb/s
Maximum bit rate : 25.0 Mb/s
Width : 1 920 pixels
Height : 1 080 pixels
Display aspect ratio : 16:9
Frame rate mode : Constant
Frame rate : 24.000 FPS
Standard : NTSC
Color space : YUV
Chroma subsampling : 4:2:0
Bit depth : 8 bits
Scan type : Progressive
Bits/(Pixel*Frame) : 0.362
Stream size : 14.2 GiB (70%)
Language : English
Default : No
Forced : No
Color range : Limited
Color primaries : BT.709
Transfer characteristics : BT.709
Matrix coefficients : BT.709
Original source medium : Blu-ray

Audio #1
ID : 2
ID in the original source medium : 4353 (0x1101)
Format : DTS XLL
Format/Info : Digital Theater Systems
Commercial name : DTS-HD Master Audio
Codec ID : A_DTS
Duration : 1 h 52 min
Bit rate mode : Variable
Bit rate : 3 089 kb/s
Channel(s) : 6 channels
Channel layout : C L R Ls Rs LFE
Sampling rate : 48.0 kHz
Frame rate : 93.750 FPS (512 SPF)
Bit depth : 24 bits
Compression mode : Lossless
Stream size : 2.43 GiB (12%)
Title : DTS-HD MA 5.1
Language : English
Default : Yes
Forced : No
Original source medium : Blu-ray

Audio #2
ID : 3
ID in the original source medium : 4352 (0x1100)
Format : DTS XLL
Format/Info : Digital Theater Systems
Commercial name : DTS-HD Master Audio
Codec ID : A_DTS
Duration : 1 h 52 min
Bit rate mode : Variable
Bit rate : 3 198 kb/s
Channel(s) : 6 channels
Channel layout : C L R Ls Rs LFE
Sampling rate : 48.0 kHz
Frame rate : 93.750 FPS (512 SPF)
Bit depth : 24 bits
Compression mode : Lossless
Stream size : 2.52 GiB (12%)
Title : DTS-HD MA 5.1
Language : Spanish
Default : No
Forced : No
Original source medium : Blu-ray

Audio #3
ID : 4
ID in the original source medium : 4354 (0x1102)
Format : PCM
Format settings : Little / Signed
Codec ID : A_PCM/INT/LIT
Duration : 1 h 52 min
Bit rate mode : Constant
Bit rate : 1 536 kb/s
Channel(s) : 2 channels
Sampling rate : 48.0 kHz
Frame rate : 30.000 FPS (1600 SPF)
Bit depth : 16 bits
Stream size : 1.21 GiB (6%)
Title : LPCM 2.0
Language : Spanish
Default : No
Forced : No
Original source medium : Blu-ray

Text #1
ID : 5
Format : UTF-8
Codec ID : S_TEXT/UTF8
Codec ID/Info : UTF-8 Plain Text
Duration : 1 h 43 min
Bit rate : 51 b/s
Count of elements : 1442
Stream size : 38.9 KiB (0%)
Title : English-SRT
Language : English
Default : Yes
Forced : No

Text #2
ID : 6
ID in the original source medium : 4609 (0x1201)
Format : PGS
Muxing mode : zlib
Codec ID : S_HDMV/PGS
Codec ID/Info : Picture based subtitle format used on BDs/HD-DVDs
Duration : 1 h 40 min
Bit rate : 198 b/s
Count of elements : 12
Stream size : 146 KiB (0%)
Title : English-FORCED-PGS
Language : English
Default : No
Forced : No
Original source medium : Blu-ray

Text #3
ID : 7
ID in the original source medium : 4608 (0x1200)
Format : PGS
Muxing mode : zlib
Codec ID : S_HDMV/PGS
Codec ID/Info : Picture based subtitle format used on BDs/HD-DVDs
Duration : 1 h 44 min
Bit rate : 33.4 kb/s
Count of elements : 2620
Stream size : 24.9 MiB (0%)
Title : Spanish-PGS
Language : Spanish
Default : No
Forced : No
Original source medium : Blu-ray

Text #4
ID : 8
ID in the original source medium : 4610 (0x1202)
Format : PGS
Muxing mode : zlib
Codec ID : S_HDMV/PGS
Codec ID/Info : Picture based subtitle format used on BDs/HD-DVDs
Duration : 1 h 44 min
Bit rate : 38.3 kb/s
Count of elements : 3002
Stream size : 28.7 MiB (0%)
Title : Spanish-FORCED-PGS
Language : Spanish
Default : No
Forced : No
Original source medium : Blu-ray

Menu
00:00:00.000 : en:Chapter 01
00:15:20.916 : en:Chapter 02
00:29:04.708 : en:Chapter 03
00:42:29.333 : en:Chapter 04
00:55:58.541 : en:Chapter 05
01:13:08.416 : en:Chapter 06
01:27:12.333 : en:Chapter 07
01:40:32.500 : en:Chapter 08

本帖子中包含更多资源

您需要 登录 才可以下载或查看,没有帐号?立即注册

x
回复

使用道具 举报

0

主题

1032

帖子

7831

积分

VIP永久

Rank: 12Rank: 12Rank: 12

积分
7831
发表于 2021-2-17 20:12:38 | 显示全部楼层
感谢楼主分享!!!
回复

使用道具 举报

0

主题

246

帖子

1146

积分

金牌会员

Rank: 6Rank: 6

积分
1146
发表于 2021-2-18 09:54:01 | 显示全部楼层
谢谢楼主分享
回复

使用道具 举报

0

主题

303

帖子

1702

积分

金牌会员

Rank: 6Rank: 6

积分
1702
发表于 2021-2-18 10:17:36 | 显示全部楼层
谢楼主分享
回复

使用道具 举报

0

主题

107

帖子

201

积分

中级会员

Rank: 3Rank: 3

积分
201
发表于 6 天前 | 显示全部楼层
感谢楼主发帖
回复

使用道具 举报

您需要登录后才可以回帖 登录 | 立即注册

本版积分规则

QQ|Archiver|手机版|小黑屋|原盘天堂 盘盘多 点击这里给我发消息

GMT+8, 2021-2-28 20:32 , Processed in 0.058155 second(s), 25 queries .

Powered by Discuz! X3.4

Copyright © 2001-2020, Tencent Cloud.

快速回复 返回顶部 返回列表