请选择 进入手机版 | 继续访问电脑版
本站原来Q群已取消,请原Q群会员和其他未入群会员加原盘天堂新官方QQ群713428235【盘盘多】,验证信息填写您在论坛的会员名,不填会员名的无法入群哈,进群后修改您的群名片名字为您在论坛的会员名,请务必修改,否则群成员多了不知道您是哪个会员。

原盘天堂

 找回密码
 立即注册
查看: 112|回复: 10

2d蓝光原盘bdmv 大卫.伯恩的美国乌托邦 英语原版 david byrnes american.utopia.2020.1080p.bluray.avc.dts-hd.ma.5.1[31.14 GB]

[复制链接]

5672

主题

6261

帖子

131万

积分

管理员

Rank: 18Rank: 18Rank: 18Rank: 18Rank: 18

积分
1317910
发表于 2021-1-26 09:48:08 | 显示全部楼层 |阅读模式








导演: 斯派克·李
编剧: 大卫·伯恩
主演: 大卫·伯恩
类型: 纪录片 / 音乐 / 歌舞
制片国家/地区: 美国
语言: 英语
上映日期: 2020-09-10(多伦多电影节) / 2020-10-17(美国)
片长: 105分钟
又名: 美国乌托邦 / American Utopia

豆瓣评分
7.9
605人评价
5星 31.7%
4星 38.5%
3星 25.2%
2星 2.4%
1星 2.2%
好于 25% 纪录片

剧情简介 · · · · · ·
  斯派克·李将为百老汇舞台剧《大卫·伯恩的美国乌托邦》执导电影版。该剧目已在去年10月开演,持续到今年2月16日。电影版计划于今年上映。

DISC INFO:

Disc Title:     American.Utopia.2020.1080p.BluRay.AVC.DTS-HD.MA.5.1-FGT
Disc Size:      33,437,872,164 bytes
Protection:     AACS
BDInfo:         0.7.5.9 (compatible layout created by DVDFab 12.0.1.5)

PLAYLIST REPORT:

Name:                   00000.MPLS  
Length:                 1:45:44.212 (h:m:s.ms)
Size:                   32,625,899,520 bytes
Total Bitrate:          41.14 Mbps

VIDEO:

Codec                   Bitrate             Description     
-----                   -------             -----------     
MPEG-4 AVC Video        34996 kbps          1080p / 23.976 fps / 16:9 / High Profile 4.1

AUDIO:

Codec                           Language        Bitrate         Description     
-----                           --------        -------         -----------     
DTS-HD Master Audio             English         2335 kbps       5.1 / 48 kHz / 2335 kbps / 16-bit (DTS Core: 5.1 / 48 kHz / 1509 kbps / 16-bit)
LPCM Audio                      English         1536 kbps       2.0 / 48 kHz / 1536 kbps / 16-bit

SUBTITLES:

Codec                           Language        Bitrate         Description     
-----                           --------        -------         -----------     
Presentation Graphics           English         28.871 kbps     

Video
ID : 1
ID in the original source medium : 4113 (0x1011)
Format : AVC
Format/Info : Advanced Video Codec
Format profile : [email protected]
Format settings : CABAC / 4 Ref Frames
Format settings, CABAC : Yes
Format settings, Reference frames : 4 frames
Codec ID : V_MPEG4/ISO/AVC
Duration : 1 h 45 min
Bit rate mode : Constant
Bit rate : 35.0 Mb/s
Width : 1 920 pixels
Height : 1 080 pixels
Display aspect ratio : 16:9
Frame rate mode : Constant
Frame rate : 23.976 (24000/1001) FPS
Standard : NTSC
Color space : YUV
Chroma subsampling : 4:2:0
Bit depth : 8 bits
Scan type : Progressive
Bits/(Pixel*Frame) : 0.704
Stream size : 25.2 GiB (90%)
Language : English
Default : No
Forced : No
Color range : Limited
Color primaries : BT.709
Transfer characteristics : BT.709
Matrix coefficients : BT.709
Original source medium : Blu-ray

Audio #1
ID : 2
ID in the original source medium : 4352 (0x1100)
Format : DTS XLL
Format/Info : Digital Theater Systems
Commercial name : DTS-HD Master Audio
Codec ID : A_DTS
Duration : 1 h 45 min
Bit rate mode : Variable
Bit rate : 2 335 kb/s
Channel(s) : 6 channels
Channel layout : C L R Ls Rs LFE
Sampling rate : 48.0 kHz
Frame rate : 93.750 FPS (512 SPF)
Bit depth : 16 bits
Compression mode : Lossless
Stream size : 1.72 GiB (6%)
Title : DTS-HD MA 5.1
Language : English
Default : Yes
Forced : No
Original source medium : Blu-ray

Audio #2
ID : 3
ID in the original source medium : 4353 (0x1101)
Format : PCM
Format settings : Little / Signed
Codec ID : A_PCM/INT/LIT
Duration : 1 h 45 min
Bit rate mode : Constant
Bit rate : 1 536 kb/s
Channel(s) : 2 channels
Sampling rate : 48.0 kHz
Frame rate : 30.000 FPS (1600 SPF)
Bit depth : 16 bits
Stream size : 1.13 GiB (4%)
Title : Stereo
Language : English
Default : No
Forced : No
Original source medium : Blu-ray

Text #1
ID : 4
Format : UTF-8
Codec ID : S_TEXT/UTF8
Codec ID/Info : UTF-8 Plain Text
Duration : 1 h 42 min
Bit rate : 50 b/s
Count of elements : 1308
Stream size : 38.1 KiB (0%)
Title : English-SRT
Language : English
Default : Yes
Forced : No

Text #2
ID : 5
ID in the original source medium : 4608 (0x1200)
Format : PGS
Muxing mode : zlib
Codec ID : S_HDMV/PGS
Codec ID/Info : Picture based subtitle format used on BDs/HD-DVDs
Duration : 1 h 44 min
Bit rate : 29.3 kb/s
Count of elements : 3050
Stream size : 21.8 MiB (0%)
Title : English-PGS
Language : English
Default : No
Forced : No
Original source medium : Blu-ray

Menu
00:00:00.000 : en:Chapter 01
00:05:33.082 : en:Chapter 02
00:08:53.407 : en:Chapter 03
00:12:07.643 : en:Chapter 04
00:15:57.831 : en:Chapter 05
00:22:08.785 : en:Chapter 06
00:27:06.708 : en:Chapter 07
00:32:01.669 : en:Chapter 08
00:36:39.780 : en:Chapter 09
00:42:13.239 : en:Chapter 10
00:47:49.199 : en:Chapter 11
00:51:05.812 : en:Chapter 12
00:57:10.593 : en:Chapter 13
01:04:14.141 : en:Chapter 14
01:07:41.015 : en:Chapter 15
01:11:11.308 : en:Chapter 16
01:15:56.385 : en:Chapter 17
01:20:43.588 : en:Chapter 18
01:24:57.467 : en:Chapter 19
01:30:02.355 : en:Chapter 20
01:35:03.614 : en:Chapter 21
01:42:21.260 : en:Chapter 22

本帖子中包含更多资源

您需要 登录 才可以下载或查看,没有帐号?立即注册

x
回复

使用道具 举报

0

主题

1032

帖子

7831

积分

VIP永久

Rank: 12Rank: 12Rank: 12

积分
7831
发表于 2021-1-26 21:39:12 | 显示全部楼层
感谢楼主分享!!!!!
回复

使用道具 举报

0

主题

1125

帖子

4813

积分

论坛元老

Rank: 8Rank: 8

积分
4813
发表于 2021-1-28 15:11:15 | 显示全部楼层
感谢楼主分享高清影片
回复

使用道具 举报

0

主题

61

帖子

305

积分

中级会员

Rank: 3Rank: 3

积分
305
发表于 2021-1-28 16:31:54 | 显示全部楼层
感谢楼主分享!!!!!
回复

使用道具 举报

0

主题

303

帖子

1702

积分

金牌会员

Rank: 6Rank: 6

积分
1702
发表于 2021-1-30 16:12:07 | 显示全部楼层
谢楼主分享
回复

使用道具 举报

0

主题

17

帖子

126

积分

VIP月

Rank: 9Rank: 9Rank: 9

积分
126
发表于 2021-1-30 22:33:50 | 显示全部楼层
感谢楼主分享高清影片
回复

使用道具 举报

0

主题

303

帖子

1702

积分

金牌会员

Rank: 6Rank: 6

积分
1702
发表于 2021-2-2 12:39:59 | 显示全部楼层
谢楼主分享
回复

使用道具 举报

0

主题

142

帖子

732

积分

高级会员

Rank: 4

积分
732
发表于 2021-2-3 06:32:03 | 显示全部楼层
谢谢楼主分享
回复

使用道具 举报

0

主题

255

帖子

1018

积分

金牌会员

Rank: 6Rank: 6

积分
1018
发表于 2021-2-4 11:11:55 | 显示全部楼层
感谢楼主分享高清资源
回复

使用道具 举报

0

主题

303

帖子

1702

积分

金牌会员

Rank: 6Rank: 6

积分
1702
发表于 2021-2-5 13:01:13 | 显示全部楼层
谢楼主分享
回复

使用道具 举报

您需要登录后才可以回帖 登录 | 立即注册

本版积分规则

QQ|Archiver|手机版|小黑屋|原盘天堂 盘盘多 点击这里给我发消息

GMT+8, 2021-2-28 14:26 , Processed in 0.060525 second(s), 25 queries .

Powered by Discuz! X3.4

Copyright © 2001-2020, Tencent Cloud.

快速回复 返回顶部 返回列表