请选择 进入手机版 | 继续访问电脑版
本站原来Q群已取消,请原Q群会员和其他未入群会员加原盘天堂新官方QQ群713428235【盘盘多】,验证信息填写您在论坛的会员名,不填会员名的无法入群哈,进群后修改您的群名片名字为您在论坛的会员名,请务必修改,否则群成员多了不知道您是哪个会员。

原盘天堂

 找回密码
 立即注册
查看: 80|回复: 5

2d蓝光原盘bdmv 比吉斯:如何修复受伤心灵 英语原版 the.bee.gees.how.can.you.mend.a.broken.heart.2020.1080p.bluray.avc.dts-hd.ma.5.1[33.34 GB]

[复制链接]

5672

主题

6261

帖子

131万

积分

管理员

Rank: 18Rank: 18Rank: 18Rank: 18Rank: 18

积分
1317910
发表于 2021-1-26 09:02:55 | 显示全部楼层 |阅读模式






比吉斯:如何修复受伤心灵 The Bee Gees: How Can You Mend a Broken Heart (2020)

导演: 弗兰克·马歇尔
编剧: 马克·蒙雷
主演: 巴里·吉布 / 莫里斯·吉布 / 罗宾·吉布 / Andy Gibb / 诺尔·加拉格 / 更多...
类型: 纪录片 / 音乐
制片国家/地区: 美国
语言: 英语
上映日期: 2020-12-12(美国)
片长: 111分钟

剧情简介 · · · · · ·
  弗兰克·马歇尔(《从地球到月球》《南极大冒险》)执导,记录了巴里、罗宾、莫里斯三兄弟事业上的成功和障碍,他们迅速崛起,乘风破浪,名利双全,克服了不断变化的音乐行业中的变幻莫测,以及与家人密切合作的复杂性。
  该乐队1958年成立,创作了1000多首歌曲,众多作品登上排行榜榜首,获得了格莱美终身成就奖、全英音乐奖杰出贡献奖等多项大奖,并入驻美国摇滚名人堂。

DISC INFO:

Disc Title:     The.Bee.Gees.How.Can.You.Mend.a.Broken.Heart.2020.1080p.BluRay.AVC.DTS-HD.MA.5.1-FGT
Disc Size:      35,803,204,351 bytes
Protection:     AACS
BDInfo:         0.7.5.9 (compatible layout created by DVDFab 12.0.1.5)

PLAYLIST REPORT:

Name:                   00000.MPLS  
Length:                 1:51:07.577 (h:m:s.ms)
Size:                   35,211,152,256 bytes
Total Bitrate:          42.25 Mbps

VIDEO:

Codec                   Bitrate             Description     
-----                   -------             -----------     
MPEG-4 AVC Video        34629 kbps          1080p / 23.976 fps / 16:9 / High Profile 4.1

AUDIO:

Codec                           Language        Bitrate         Description     
-----                           --------        -------         -----------     
DTS-HD Master Audio             English         3209 kbps       5.1 / 48 kHz / 3209 kbps / 24-bit (DTS Core: 5.1 / 48 kHz / 768 kbps / 24-bit)
LPCM Audio                      English         2304 kbps       2.0 / 48 kHz / 2304 kbps / 24-bit

SUBTITLES:

Codec                           Language        Bitrate         Description     
-----                           --------        -------         -----------     
Presentation Graphics           English         82.177 kbps   

Video
ID : 1
ID in the original source medium : 4113 (0x1011)
Format : AVC
Format/Info : Advanced Video Codec
Format profile : [email protected]
Format settings : CABAC / 4 Ref Frames
Format settings, CABAC : Yes
Format settings, Reference frames : 4 frames
Format settings, GOP : M=3, N=12
Codec ID : V_MPEG4/ISO/AVC
Duration : 1 h 51 min
Bit rate mode : Variable
Bit rate : 34.0 Mb/s
Maximum bit rate : 38.0 Mb/s
Width : 1 920 pixels
Height : 1 080 pixels
Display aspect ratio : 16:9
Frame rate mode : Constant
Frame rate : 23.976 (24000/1001) FPS
Color space : YUV
Chroma subsampling : 4:2:0
Bit depth : 8 bits
Scan type : Progressive
Bits/(Pixel*Frame) : 0.683
Stream size : 26.4 GiB (86%)
Language : English
Default : No
Forced : No
Original source medium : Blu-ray

Audio #1
ID : 2
ID in the original source medium : 4352 (0x1100)
Format : DTS XLL
Format/Info : Digital Theater Systems
Commercial name : DTS-HD Master Audio
Codec ID : A_DTS
Duration : 1 h 51 min
Bit rate mode : Variable
Bit rate : 3 209 kb/s
Channel(s) : 6 channels
Channel layout : C L R Ls Rs LFE
Sampling rate : 48.0 kHz
Frame rate : 93.750 FPS (512 SPF)
Bit depth : 24 bits
Compression mode : Lossless
Delay relative to video : 83 ms
Stream size : 2.49 GiB (8%)
Title : DTS-HD MA 5.1
Language : English
Default : Yes
Forced : No
Original source medium : Blu-ray

Audio #2
ID : 3
ID in the original source medium : 4353 (0x1101)
Format : PCM
Format settings : Little / Signed
Codec ID : A_PCM/INT/LIT
Duration : 1 h 51 min
Bit rate mode : Constant
Bit rate : 2 304 kb/s
Channel(s) : 2 channels
Sampling rate : 48.0 kHz
Frame rate : 30.000 FPS (1600 SPF)
Bit depth : 24 bits
Stream size : 1.79 GiB (6%)
Title : LPCM 2.0
Language : English
Default : No
Forced : No
Original source medium : Blu-ray

Text #1
ID : 4
Format : UTF-8
Codec ID : S_TEXT/UTF8
Codec ID/Info : UTF-8 Plain Text
Duration : 1 h 50 min
Bit rate : 94 b/s
Count of elements : 1829
Stream size : 76.1 KiB (0%)
Title : English-SRT
Language : English
Default : Yes
Forced : No

Text #2
ID : 5
ID in the original source medium : 4608 (0x1200)
Format : PGS
Muxing mode : zlib
Codec ID : S_HDMV/PGS
Codec ID/Info : Picture based subtitle format used on BDs/HD-DVDs
Duration : 1 h 50 min
Bit rate : 82.6 kb/s
Count of elements : 3836
Stream size : 65.3 MiB (0%)
Title : English-PGS
Language : English
Default : No
Forced : No
Original source medium : Blu-ray

Menu
00:00:00.083 : en:Chapter 01
00:10:12.028 : en:Chapter 02
00:18:05.584 : en:Chapter 03
00:25:30.737 : en:Chapter 04
00:35:12.026 : en:Chapter 05
00:46:02.259 : en:Chapter 06
00:54:12.624 : en:Chapter 07
01:00:42.096 : en:Chapter 08
01:08:54.505 : en:Chapter 09
01:17:29.102 : en:Chapter 10
01:28:12.412 : en:Chapter 11
01:38:12.303 : en:Chapter 12

本帖子中包含更多资源

您需要 登录 才可以下载或查看,没有帐号?立即注册

x
回复

使用道具 举报

0

主题

1032

帖子

7831

积分

VIP永久

Rank: 12Rank: 12Rank: 12

积分
7831
发表于 2021-1-26 21:38:12 | 显示全部楼层
感谢楼主分享!!!!!
回复

使用道具 举报

0

主题

1125

帖子

4813

积分

论坛元老

Rank: 8Rank: 8

积分
4813
发表于 2021-1-30 21:05:00 | 显示全部楼层
感谢楼主分享高清影片
回复

使用道具 举报

0

主题

17

帖子

126

积分

VIP月

Rank: 9Rank: 9Rank: 9

积分
126
发表于 2021-1-30 22:35:09 | 显示全部楼层
感谢楼主分享高清影片
回复

使用道具 举报

0

主题

83

帖子

562

积分

高级会员

Rank: 4

积分
562
发表于 2021-2-8 19:32:17 | 显示全部楼层
Thank you very much
回复

使用道具 举报

0

主题

50

帖子

367

积分

中级会员

Rank: 3Rank: 3

积分
367
发表于 5 天前 | 显示全部楼层

感谢楼主分享高清影片
回复

使用道具 举报

您需要登录后才可以回帖 登录 | 立即注册

本版积分规则

QQ|Archiver|手机版|小黑屋|原盘天堂 盘盘多 点击这里给我发消息

GMT+8, 2021-2-28 14:20 , Processed in 0.055475 second(s), 25 queries .

Powered by Discuz! X3.4

Copyright © 2001-2020, Tencent Cloud.

快速回复 返回顶部 返回列表