请选择 进入手机版 | 继续访问电脑版
本站原来Q群已取消,请原Q群会员和其他未入群会员加原盘天堂新官方QQ群713428235【盘盘多】,验证信息填写您在论坛的会员名,不填会员名的无法入群哈,进群后修改您的群名片名字为您在论坛的会员名,请务必修改,否则群成员多了不知道您是哪个会员。

原盘天堂

 找回密码
 立即注册
查看: 140|回复: 2

4k蓝光原盘bdmv 狼嚎 英语原版 the.wolfs.call.2019.french.2160p.bluray.hevc.truehd.7.1.atmos[76.34 GB]

[复制链接]

5672

主题

6261

帖子

131万

积分

管理员

Rank: 18Rank: 18Rank: 18Rank: 18Rank: 18

积分
1317910
发表于 2021-1-24 21:21:37 | 显示全部楼层 |阅读模式








狼嚎 Le Chant du loup (2019)

导演: Antonin Baudry
编剧: Antonin Baudry
主演: 弗朗索瓦·西维尔 / 奥玛·希 / 马修·卡索维茨 / 勒达·卡代布 / 葆拉·贝尔 / 更多...
类型: 战争 / 灾难
制片国家/地区: 法国
语言: 法语
上映日期: 2019-02-20(法国)
片长: 116分钟
又名: 潜航核战(港) / 潜舰追缉(台) / 狼之歌 / The Song of the Wolf / The Wolf's Call

豆瓣评分 引用
7.2
9359人评价
5星 13.5%
4星 41.2%
3星 38.8%
2星 5.4%
1星 1.2%
好于 37% 战争片
好于 66% 灾难片

剧情简介 · · · · · ·
  一个年轻人有一种罕见的礼物,可以识别他听到的每一个声音。在一艘法国核潜艇上,一切都依赖于他,金耳朵。
  看上去绝对可靠,他犯了一个错误,让船员处于死亡的危险之中。他希望重新获得同志的信任,但他的追求会让他们陷入更加戏剧化的境地。
  在核威慑和错误信息的世界中,他们发现自己被困在一个无法控制的装备中。

狼嚎 Le Chant du loup 获奖情况
第45届法国凯撒电影奖  (2020)
最佳处女作(提名) Antonin Baudry
最佳音效
最佳布景(提名)

DISC INFO:

Disc Title:     The.Wolfs.Call.2019.FRENCH.2160p.BluRay.HEVC.TrueHD.7.1.Atmos-MMCLX
Disc Size:      81,955,267,670 bytes
Protection:     AACS2
Extras:         Ultra HD
BDInfo:         0.7.5.9 (compatible layout created by DVDFab 12.0.1.5)

PLAYLIST REPORT:

Name:                   00000.MPLS  
Length:                 1:55:44.979 (h:m:s.ms)
Size:                   79,809,367,488 bytes
Total Bitrate:          91.93 Mbps

VIDEO:

Codec                   Bitrate             Description     
-----                   -------             -----------     
MPEG-H HEVC Video       80009 kbps          2160p / 23.976 fps / 16:9 / Main 10 @ Level 5.1 @ High / 4:2:0 / 10 bits / 1000nits / HDR10 / BT.2020

AUDIO:

Codec                           Language        Bitrate         Description     
-----                           --------        -------         -----------     
Dolby TrueHD/Atmos Audio        French          4275 kbps       7.1+11 objects / 48 kHz / 3635 kbps / 24-bit (AC3 Core: 5.1-EX / 48 kHz / 640 kbps)
DTS-HD Master Audio             French          1656 kbps       2.0 / 48 kHz / 1656 kbps / 24-bit (DTS Core: 2.0 / 48 kHz / 768 kbps / 24-bit)
DTS Audio                       French          768 kbps        2.0 / 48 kHz / 768 kbps / 16-bit

SUBTITLES:

Codec                           Language        Bitrate         Description     
-----                           --------        -------         -----------     
Presentation Graphics           French          30.547 kbps   

Video
ID : 1
ID in the original source medium : 4113 (0x1011)
Format : HEVC
Format/Info : High Efficiency Video Coding
Format profile : Main [email protected]@High
HDR format : SMPTE ST 2086, HDR10 compatible
Codec ID : V_MPEGH/ISO/HEVC
Duration : 1 h 55 min
Bit rate : 75.4 Mb/s
Width : 3 840 pixels
Height : 2 160 pixels
Display aspect ratio : 16:9
Frame rate mode : Constant
Frame rate : 23.976 (24000/1001) FPS
Color space : YUV
Chroma subsampling : 4:2:0 (Type 2)
Bit depth : 10 bits
Bits/(Pixel*Frame) : 0.379
Stream size : 61.1 GiB (87%)
Writing library : ATEME Titan File 3.9.0 (4.9.0.0)
Language : English
Default : No
Forced : No
Color range : Limited
Color primaries : BT.2020
Transfer characteristics : PQ
Matrix coefficients : BT.2020 non-constant
Mastering display color primaries : BT.2020
Mastering display luminance : min: 0.0050 cd/m2, max: 1000 cd/m2
Maximum Content Light Level : 1000 cd/m2
Maximum Frame-Average Light Level : 300 cd/m2
Original source medium : Blu-ray

Audio #1
ID : 2
ID in the original source medium : 4352 (0x1100)
Format : MLP FBA 16-ch
Format/Info : Meridian Lossless Packing FBA with 16-channel presentation
Commercial name : Dolby TrueHD with Dolby Atmos
Codec ID : A_TRUEHD
Duration : 1 h 55 min
Bit rate mode : Variable
Bit rate : 3 635 kb/s
Maximum bit rate : 5 967 kb/s
Channel(s) : 8 channels
Channel layout : L R C LFE Ls Rs Lb Rb
Sampling rate : 48.0 kHz
Frame rate : 1 200.000 FPS (40 SPF)
Compression mode : Lossless
Stream size : 2.94 GiB (4%)
Title : TrueHD 7.1 Atmos
Language : French
Default : Yes
Forced : No
Original source medium : Blu-ray
Number of dynamic objects : 11
Bed channel count : 1 channel
Bed channel configuration : LFE

Audio #2
ID : 3
Format : DTS XLL
Format/Info : Digital Theater Systems
Commercial name : DTS-HD Master Audio
Codec ID : A_DTS
Duration : 1 h 55 min
Bit rate mode : Variable
Bit rate : 4 095 kb/s
Channel(s) : 8 channels
Channel layout : C L R LFE Lb Rb Lss Rss
Sampling rate : 48.0 kHz
Frame rate : 93.750 FPS (512 SPF)
Bit depth : 24 bits
Compression mode : Lossless
Stream size : 3.32 GiB (5%)
Title : DTS-HD MA 7.1
Language : French
Default : No
Forced : No

Audio #3
ID : 4
ID in the original source medium : 4352 (0x1100)
Format : AC-3
Format/Info : Audio Coding 3
Commercial name : Dolby Digital
Codec ID : A_AC3
Duration : 1 h 55 min
Bit rate mode : Constant
Bit rate : 640 kb/s
Channel(s) : 6 channels
Channel layout : L R C LFE Ls Rs
Sampling rate : 48.0 kHz
Frame rate : 31.250 FPS (1536 SPF)
Compression mode : Lossy
Stream size : 531 MiB (1%)
Title : DD 5.1
Language : French
Service kind : Complete Main
Default : No
Forced : No
Original source medium : Blu-ray

Audio #4
ID : 5
ID in the original source medium : 4353 (0x1101)
Format : DTS XLL
Format/Info : Digital Theater Systems
Commercial name : DTS-HD Master Audio
Codec ID : A_DTS
Duration : 1 h 55 min
Bit rate mode : Variable
Bit rate : 1 656 kb/s
Channel(s) : 2 channels
Sampling rate : 48.0 kHz
Frame rate : 93.750 FPS (512 SPF)
Bit depth : 24 bits
Compression mode : Lossless
Delay relative to video : 959 ms
Stream size : 1.34 GiB (2%)
Title : DTS-HD MA 2.0
Language : French
Default : No
Forced : No
Original source medium : Blu-ray

Audio #5
ID : 6
ID in the original source medium : 4354 (0x1102)
Format : DTS
Format/Info : Digital Theater Systems
Codec ID : A_DTS
Duration : 1 h 55 min
Bit rate mode : Constant
Bit rate : 768 kb/s
Channel(s) : 2 channels
Channel layout : Lt Rt
Sampling rate : 48.0 kHz
Frame rate : 93.750 FPS (512 SPF)
Bit depth : 16 bits
Compression mode : Lossy
Delay relative to video : 959 ms
Stream size : 636 MiB (1%)
Title : DTS 2.0
Language : French
Default : No
Forced : No
Original source medium : Blu-ray

Text #1
ID : 7
Format : UTF-8
Codec ID : S_TEXT/UTF8
Codec ID/Info : UTF-8 Plain Text
Duration : 1 h 54 min
Bit rate : 37 b/s
Count of elements : 1167
Stream size : 31.3 KiB (0%)
Title : English-SRT
Language : English
Default : Yes
Forced : No

Text #2
ID : 8
ID in the original source medium : 4768 (0x12A0)
Format : PGS
Muxing mode : zlib
Codec ID : S_HDMV/PGS
Codec ID/Info : Picture based subtitle format used on BDs/HD-DVDs
Duration : 1 h 54 min
Bit rate : 30.8 kb/s
Count of elements : 3258
Stream size : 25.3 MiB (0%)
Title : French-PGS
Language : French
Default : No
Forced : No
Original source medium : Blu-ray

Menu
00:00:00.000 : en:Chapter 01
00:12:02.096 : en:Chapter 02
00:22:57.250 : en:Chapter 03
00:32:05.048 : en:Chapter 04
00:40:23.796 : en:Chapter 05
00:51:37.552 : en:Chapter 06
01:01:48.955 : en:Chapter 07
01:12:54.620 : en:Chapter 08
01:19:20.797 : en:Chapter 09
01:28:48.906 : en:Chapter 10
01:39:49.525 : en:Chapter 11
01:49:54.421 : en:Chapter 12
01:55:45.271 : en:Chapter 13

本帖子中包含更多资源

您需要 登录 才可以下载或查看,没有帐号?立即注册

x
回复

使用道具 举报

0

主题

1032

帖子

7831

积分

VIP永久

Rank: 12Rank: 12Rank: 12

积分
7831
发表于 2021-1-25 13:07:13 | 显示全部楼层

感谢楼主分享!!!!!
回复

使用道具 举报

0

主题

1125

帖子

4813

积分

论坛元老

Rank: 8Rank: 8

积分
4813
发表于 2021-1-25 21:07:38 | 显示全部楼层
感谢楼主分享高清影片
回复

使用道具 举报

您需要登录后才可以回帖 登录 | 立即注册

本版积分规则

QQ|Archiver|手机版|小黑屋|原盘天堂 盘盘多 点击这里给我发消息

GMT+8, 2021-2-28 14:03 , Processed in 0.058219 second(s), 25 queries .

Powered by Discuz! X3.4

Copyright © 2001-2020, Tencent Cloud.

快速回复 返回顶部 返回列表