请选择 进入手机版 | 继续访问电脑版
本站原来Q群已取消,请原Q群会员和其他未入群会员加原盘天堂新官方QQ群713428235【盘盘多】,验证信息填写您在论坛的会员名,不填会员名的无法入群哈,进群后修改您的群名片名字为您在论坛的会员名,请务必修改,否则群成员多了不知道您是哪个会员,无法为您发送高速链接!

原盘天堂

 找回密码
 立即注册
查看: 164|回复: 6

4k蓝光原盘bdmv 小鬼当家 英语原版 home.alone.1990.2160p.bluray.hevc.dts-hd.ma.5.1[58.58 GB]

[复制链接]

5452

主题

5979

帖子

129万

积分

管理员

Rank: 18Rank: 18Rank: 18Rank: 18Rank: 18

积分
1295144
发表于 2020-9-20 08:57:10 | 显示全部楼层 |阅读模式








小鬼当家 Home Alone (1990)

导演: 克里斯·哥伦布
编剧: 约翰·休斯
主演: 麦考利·卡尔金 / 乔·佩西 / 丹尼尔·斯特恩 / 约翰·赫德 / 罗伯茨·布洛瑟姆 / 更多...
类型: 喜剧 / 家庭 / 犯罪
制片国家/地区: 美国
语言: 英语
上映日期: 1990-11-16
片长: 103分钟
又名: 独自在家 / 宝贝智多星

豆瓣评分
8.3
306761人评价
5星31.6%
4星51.8%
3星15.8%
2星0.6%
1星0.1%
好于 92% 喜剧片
好于 86% 家庭片

剧情简介 · · · · · ·
  一年一度的圣诞节又到了。全家忙着外出欢度圣诞假期,不料忙中出错,将家里最小的成员——8岁的凯文(麦考利•卡尔金 Macaulay Culkin 饰)留在了家里。爸爸妈妈急坏了,可此时他们已经身在外地,一时亦无可奈何。倒是凯文乐坏了,难得一个人在家,凯文将家里布置成了“游乐场”。
  两个刚出狱的窃贼将目光瞄向了凯文家。当他们鬼鬼祟祟的踏入凯文家时,凯文凭借自己的醒目和家里的“游乐场机关”,和两个笨贼玩起了“游戏”,笑料百出。凯文最后能否这场“游戏”的胜利?

小鬼当家 Home Alone 获奖情况
第63届奥斯卡金像奖  (1991)
最佳原创配乐(提名) 约翰·威廉姆斯
最佳原创歌曲(提名) 莱斯利·布里克斯 / 约翰·威廉姆斯

DISC INFO:

Disc Title:     Home.Alone.1990.2160p.BluRay.HEVC.DTS-HD.MA.5.1-LsNM
Disc Size:      62,895,577,612 bytes
Protection:     AACS2
Extras:         Ultra HD, BD-Java
BDInfo:         0.7.5.9 (compatible layout created by DVDFab 11.1.0.6)

PLAYLIST REPORT:

Name:                   00801.MPLS  
Length:                 1:42:50.956 (h:m:s.ms)
Size:                   62,295,300,096 bytes
Total Bitrate:          80.76 Mbps

VIDEO:

Codec                   Bitrate             Description   
-----                   -------             -----------   
MPEG-H HEVC Video       67733 kbps          2160p / 23.976 fps / 16:9 / Main 10 @ Level 5.1 @ High / 4:2:0 / 10 bits / 1000nits / HDR10 / BT.2020

AUDIO:

Codec                           Language        Bitrate         Description   
-----                           --------        -------         -----------   
DTS-HD Master Audio             English         3569 kbps       5.1 / 48 kHz / 3569 kbps / 24-bit (DTS Core: 5.1 / 48 kHz / 1509 kbps / 24-bit)
Dolby Digital Audio             French          640 kbps        5.1 / 48 kHz / 640 kbps
Dolby Digital Audio             Spanish         640 kbps        5.1 / 48 kHz / 640 kbps
DTS-HD Master Audio             Japanese        4067 kbps       5.1 / 48 kHz / 4067 kbps / 24-bit (DTS Core: 5.1 / 48 kHz / 1509 kbps / 24-bit)

SUBTITLES:

Codec                           Language        Bitrate         Description   
-----                           --------        -------         -----------   
Presentation Graphics           English         42.117 kbps                    
Presentation Graphics           French          26.984 kbps                    
Presentation Graphics           Spanish         25.891 kbps                    
Presentation Graphics           Japanese        16.056 kbps                    
Presentation Graphics           French          0.175 kbps                     
Presentation Graphics           Spanish         0.193 kbps                     
Presentation Graphics           Japanese        0.27 kbps   

Video
ID : 1
ID in the original source medium : 4113 (0x1011)
Format : HEVC
Format/Info : High Efficiency Video Coding
Format profile : Main [email protected]@High
HDR format : SMPTE ST 2086, HDR10 compatible
Codec ID : V_MPEGH/ISO/HEVC
Duration : 1 h 42 min
Bit rate : 67.7 Mb/s
Width : 3 840 pixels
Height : 2 160 pixels
Display aspect ratio : 16:9
Frame rate mode : Constant
Frame rate : 23.976 (24000/1001) FPS
Color space : YUV
Chroma subsampling : 4:2:0 (Type 2)
Bit depth : 10 bits
Bits/(Pixel*Frame) : 0.341
Stream size : 48.7 GiB (87%)
Title : Home.Alone.1990.2160p.BluRay.REMUX.HEVC.DTS-HD.MA.5.1-FGT
Language : English
Default : No
Forced : No
Color range : Limited
Color primaries : BT.2020
Transfer characteristics : PQ
Matrix coefficients : BT.2020 non-constant
Mastering display color primaries : Display P3
Mastering display luminance : min: 0.0001 cd/m2, max: 1000 cd/m2
Original source medium : Blu-ray

Audio #1
ID : 2
ID in the original source medium : 4352 (0x1100)
Format : DTS XLL
Format/Info : Digital Theater Systems
Commercial name : DTS-HD Master Audio
Codec ID : A_DTS
Duration : 1 h 42 min
Bit rate mode : Variable
Bit rate : 3 569 kb/s
Channel(s) : 6 channels
Channel layout : C L R Ls Rs LFE
Sampling rate : 48.0 kHz
Frame rate : 93.750 FPS (512 SPF)
Bit depth : 24 bits
Compression mode : Lossless
Stream size : 2.56 GiB (5%)
Title : Home.Alone.1990.2160p.BluRay.REMUX.HEVC.DTS-HD.MA.5.1-FGT
Language : English
Default : Yes
Forced : No
Original source medium : Blu-ray

Audio #2
ID : 3
ID in the original source medium : 4353 (0x1101)
Format : AC-3
Format/Info : Audio Coding 3
Commercial name : Dolby Digital
Codec ID : A_AC3
Duration : 1 h 42 min
Bit rate mode : Constant
Bit rate : 640 kb/s
Channel(s) : 6 channels
Channel layout : L R C LFE Ls Rs
Sampling rate : 48.0 kHz
Frame rate : 31.250 FPS (1536 SPF)
Compression mode : Lossy
Stream size : 471 MiB (1%)
Title : Home.Alone.1990.2160p.BluRay.REMUX.HEVC.DTS-HD.MA.5.1-FGT
Language : French
Service kind : Complete Main
Default : No
Forced : No
Original source medium : Blu-ray

Audio #3
ID : 4
ID in the original source medium : 4354 (0x1102)
Format : AC-3
Format/Info : Audio Coding 3
Commercial name : Dolby Digital
Codec ID : A_AC3
Duration : 1 h 42 min
Bit rate mode : Constant
Bit rate : 640 kb/s
Channel(s) : 6 channels
Channel layout : L R C LFE Ls Rs
Sampling rate : 48.0 kHz
Frame rate : 31.250 FPS (1536 SPF)
Compression mode : Lossy
Stream size : 471 MiB (1%)
Title : Home.Alone.1990.2160p.BluRay.REMUX.HEVC.DTS-HD.MA.5.1-FGT
Language : Spanish
Service kind : Complete Main
Default : No
Forced : No
Original source medium : Blu-ray

Audio #4
ID : 5
ID in the original source medium : 4355 (0x1103)
Format : DTS XLL
Format/Info : Digital Theater Systems
Commercial name : DTS-HD Master Audio
Codec ID : A_DTS
Duration : 1 h 42 min
Bit rate mode : Variable
Bit rate : 4 067 kb/s
Channel(s) : 6 channels
Channel layout : C L R Ls Rs LFE
Sampling rate : 48.0 kHz
Frame rate : 93.750 FPS (512 SPF)
Bit depth : 24 bits
Compression mode : Lossless
Stream size : 2.92 GiB (5%)
Title : Home.Alone.1990.2160p.BluRay.REMUX.HEVC.DTS-HD.MA.5.1-FGT
Language : Japanese
Default : No
Forced : No
Original source medium : Blu-ray

Audio #5
ID : 6
ID in the original source medium : 4355 (0x1103)
Format : DTS
Format/Info : Digital Theater Systems
Codec ID : A_DTS
Duration : 1 h 42 min
Bit rate mode : Constant
Bit rate : 1 509 kb/s
Channel(s) : 6 channels
Channel layout : C L R Ls Rs LFE
Sampling rate : 48.0 kHz
Frame rate : 93.750 FPS (512 SPF)
Bit depth : 24 bits
Compression mode : Lossy
Stream size : 1.08 GiB (2%)
Title : Home.Alone.1990.2160p.BluRay.REMUX.HEVC.DTS-HD.MA.5.1-FGT
Language : Japanese
Default : No
Forced : No
Original source medium : Blu-ray

Text #1
ID : 7
Format : UTF-8
Codec ID : S_TEXT/UTF8
Codec ID/Info : UTF-8 Plain Text
Duration : 1 h 40 min
Bit rate : 59 b/s
Count of elements : 1204
Stream size : 43.4 KiB (0%)
Title : English-SRT
Language : English
Default : Yes
Forced : No

Text #2
ID : 8
ID in the original source medium : 4768 (0x12A0)
Format : PGS
Muxing mode : zlib
Codec ID : S_HDMV/PGS
Codec ID/Info : Picture based subtitle format used on BDs/HD-DVDs
Duration : 1 h 40 min
Bit rate : 43.1 kb/s
Count of elements : 2582
Stream size : 31.0 MiB (0%)
Title : English-PGS
Language : English
Default : No
Forced : No
Original source medium : Blu-ray

Text #3
ID : 9
ID in the original source medium : 4769 (0x12A1)
Format : PGS
Muxing mode : zlib
Codec ID : S_HDMV/PGS
Codec ID/Info : Picture based subtitle format used on BDs/HD-DVDs
Duration : 1 h 41 min
Bit rate : 27.3 kb/s
Count of elements : 1992
Stream size : 19.9 MiB (0%)
Title : French-PGS
Language : French
Default : No
Forced : No
Original source medium : Blu-ray

Text #4
ID : 10
ID in the original source medium : 4770 (0x12A2)
Format : PGS
Muxing mode : zlib
Codec ID : S_HDMV/PGS
Codec ID/Info : Picture based subtitle format used on BDs/HD-DVDs
Duration : 1 h 41 min
Bit rate : 26.2 kb/s
Count of elements : 2024
Stream size : 19.0 MiB (0%)
Title : Spanish-PGS
Language : Spanish
Default : No
Forced : No
Original source medium : Blu-ray

Text #5
ID : 11
ID in the original source medium : 4771 (0x12A3)
Format : PGS
Muxing mode : zlib
Codec ID : S_HDMV/PGS
Codec ID/Info : Picture based subtitle format used on BDs/HD-DVDs
Duration : 1 h 37 min
Bit rate : 17.0 kb/s
Count of elements : 1900
Stream size : 11.8 MiB (0%)
Title : Japanese-PGS
Language : Japanese
Default : No
Forced : No
Original source medium : Blu-ray

Text #6
ID : 12
ID in the original source medium : 4772 (0x12A4)
Format : PGS
Muxing mode : zlib
Codec ID : S_HDMV/PGS
Codec ID/Info : Picture based subtitle format used on BDs/HD-DVDs
Duration : 1 h 7 min
Bit rate : 268 b/s
Count of elements : 14
Stream size : 132 KiB (0%)
Title : French-FORCED-PGS
Language : French
Default : No
Forced : No
Original source medium : Blu-ray

Text #7
ID : 13
ID in the original source medium : 4773 (0x12A5)
Format : PGS
Muxing mode : zlib
Codec ID : S_HDMV/PGS
Codec ID/Info : Picture based subtitle format used on BDs/HD-DVDs
Duration : 1 h 7 min
Bit rate : 295 b/s
Count of elements : 18
Stream size : 146 KiB (0%)
Title : Spanish-FORCED-PGS
Language : Spanish
Default : No
Forced : No
Original source medium : Blu-ray

Text #8
ID : 14
ID in the original source medium : 4774 (0x12A6)
Format : PGS
Muxing mode : zlib
Codec ID : S_HDMV/PGS
Codec ID/Info : Picture based subtitle format used on BDs/HD-DVDs
Duration : 45 min 18 s
Bit rate : 613 b/s
Count of elements : 30
Stream size : 204 KiB (0%)
Title : Japanese-FORCED-PGS
Language : Japanese
Default : No
Forced : No
Original source medium : Blu-ray

Menu
00:00:00.000 : en:Chapter 01
00:03:47.060 : en:Chapter 02
00:05:46.512 : en:Chapter 03
00:08:49.195 : en:Chapter 04
00:11:28.729 : en:Chapter 05
00:13:43.239 : en:Chapter 06
00:19:27.457 : en:Chapter 07
00:25:08.173 : en:Chapter 08
00:31:15.957 : en:Chapter 09
00:35:56.654 : en:Chapter 10
00:41:09.550 : en:Chapter 11
00:51:22.454 : en:Chapter 12
00:57:38.204 : en:Chapter 13
01:03:27.428 : en:Chapter 14
01:06:33.656 : en:Chapter 15
01:13:43.752 : en:Chapter 16
01:15:13.175 : en:Chapter 17
01:19:27.053 : en:Chapter 18
01:22:51.341 : en:Chapter 19
01:25:59.863 : en:Chapter 20
01:28:44.777 : en:Chapter 21
01:33:31.939 : en:Chapter 22
01:37:58.289 : en:Chapter 23
01:39:06.357 : en:Chapter 24

本帖子中包含更多资源

您需要 登录 才可以下载或查看,没有帐号?立即注册

x
回复

使用道具 举报

0

主题

698

帖子

5525

积分

VIP永久

Rank: 12Rank: 12Rank: 12

积分
5525
发表于 2020-9-20 10:24:46 | 显示全部楼层

感谢楼主分享!!!
回复

使用道具 举报

0

主题

452

帖子

2607

积分

金牌会员

Rank: 6Rank: 6

积分
2607
发表于 2020-9-21 22:29:01 | 显示全部楼层
感谢楼主分享
回复

使用道具 举报

0

主题

72

帖子

563

积分

高级会员

Rank: 4

积分
563
发表于 2020-9-23 09:06:38 | 显示全部楼层
其实正经的翻译应该叫“独自在家”
回复

使用道具 举报

0

主题

11

帖子

97

积分

VIP月

Rank: 9Rank: 9Rank: 9

积分
97
发表于 2020-9-24 16:04:16 | 显示全部楼层
谢谢分享,新手签到
回复

使用道具 举报

0

主题

314

帖子

1439

积分

金牌会员

Rank: 6Rank: 6

积分
1439
发表于 2020-9-29 11:30:57 | 显示全部楼层
thank you very much
回复

使用道具 举报

0

主题

102

帖子

531

积分

高级会员

Rank: 4

积分
531
发表于 前天 09:56 | 显示全部楼层
thank you very much
回复

使用道具 举报

您需要登录后才可以回帖 登录 | 立即注册

本版积分规则

QQ|Archiver|手机版|小黑屋|原盘天堂 盘盘多 点击这里给我发消息

GMT+8, 2020-10-27 11:19 , Processed in 0.068061 second(s), 24 queries .

Powered by Discuz! X3.4

Copyright © 2001-2020, Tencent Cloud.

快速回复 返回顶部 返回列表