请选择 进入手机版 | 继续访问电脑版
本站Q群713428235【盘盘多】已满,请新会员加原盘天堂新官方QQ群709708625【好多盘】,验证信息填写您在论坛的会员名,不填会员名的无法入群哈,进群后修改您的群名片名字为您在论坛的会员名,请务必修改,否则群成员多了不知道您是哪个会员。

原盘天堂

 找回密码
 立即注册
京东商城当当华为商城名牌时尚折扣网,一个新型的网上购物平台,我们每周为您精选3~4个国际知名品牌,商品折扣低至2折限时限量售卖,商品囊括时装、护肤品、箱包、皮具、配饰、香水等等,琳琅满目。亿格瑞A10硬盘播放器 苏宁易购
查看: 1475|回复: 7

2d蓝光原盘bdmv 莫斯科陷落2 英语原版 attraction.2.invasion.2020.russian.1080p.bluray.avc.dts-hd.ma.5.1[45.67 GB]

[复制链接]

7231

主题

8284

帖子

135万

积分

管理员

Rank: 18Rank: 18Rank: 18Rank: 18Rank: 18

积分
1351237
发表于 2020-9-18 10:17:44 | 显示全部楼层 |阅读模式








莫斯科陷落2 Вторжение (2020)

导演: 费奥多尔·邦达尔丘克
编剧: 奥列格·马洛维奇克 / 安德烈·佐洛塔廖夫
主演: 伊琳娜·斯达申鲍姆 / 林奈·穆罕默托夫 / 亚历山大·佩特罗夫 / 尤里·鲍里索夫 / 谢尔盖·加尔马什 / 更多...
类型: 科幻 / 灾难
制片国家/地区: 俄罗斯
语言: 俄语
上映日期: 2020-01-01(俄罗斯)
片长: 129分钟
又名: 末日异战(台) / Притяжение 2 / Vtorzheniye / Invasion / Attraction 2: Invasion

豆瓣评分
5.7
2350人评价
5星5.8%
4星13.9%
3星48.0%
2星25.1%
1星7.2%
好于 24% 科幻片
好于 27% 灾难片

剧情简介 · · · · · ·
  自从一艘外星飞船在莫斯科切尔塔诺夫坠落以来已经过去了3年,普通女孩朱莉娅在接触到外星技术之后,成为国防部秘密实验室的研究对象。在研究过程中,朱莉娅表现出不同寻常的能力。隐藏在其中的力量不仅吸引了人类的注意,而且对宇宙的规模构成了威胁。

DISC INFO:

Disc Title:     Attraction.2.Invasion.2020.COMPLETE.BLURAY-RELiGiOUS
Disc Size:      49,040,608,822 bytes
Protection:     AACS
BDInfo:         0.7.5.9 (compatible layout created by DVDFab 11.0.8.9)

PLAYLIST REPORT:

Name:                   01101.MPLS  
Length:                 2:13:27.457 (h:m:s.ms)
Size:                   45,268,045,824 bytes
Total Bitrate:          45.23 Mbps

VIDEO:

Codec                   Bitrate             Description   
-----                   -------             -----------   
MPEG-4 AVC Video        34971 kbps          1080p / 23.976 fps / 16:9 / High Profile 4.1

AUDIO:

Codec                           Language        Bitrate         Description   
-----                           --------        -------         -----------   
DTS-HD Master Audio             English         3770 kbps       5.1 / 48 kHz / 3770 kbps / 24-bit (DTS Core: 5.1 / 48 kHz / 1509 kbps / 24-bit)
DTS-HD Master Audio             Russian         3989 kbps       5.1 / 48 kHz / 3989 kbps / 24-bit (DTS Core: 5.1 / 48 kHz / 1509 kbps / 24-bit)

SUBTITLES:

Codec                           Language        Bitrate         Description   
-----                           --------        -------         -----------   
Presentation Graphics           English         0.401 kbps                     
Presentation Graphics           English         33.95 kbps                     
Presentation Graphics           English         27.008 kbps   

Video
ID : 1
ID in the original source medium : 4113 (0x1011)
Format : AVC
Format/Info : Advanced Video Codec
Format profile : [email protected]
Format settings : CABAC / 4 Ref Frames
Format settings, CABAC : Yes
Format settings, Reference frames : 4 frames
Codec ID : V_MPEG4/ISO/AVC
Duration : 2 h 13 min
Bit rate mode : Variable
Bit rate : 34.7 Mb/s
Maximum bit rate : 36.0 Mb/s
Width : 1 920 pixels
Height : 1 080 pixels
Display aspect ratio : 16:9
Frame rate mode : Constant
Frame rate : 23.976 (24000/1001) FPS
Color space : YUV
Chroma subsampling : 4:2:0
Bit depth : 8 bits
Scan type : Progressive
Bits/(Pixel*Frame) : 0.698
Stream size : 32.3 GiB (82%)
Title : Attraction.2.Invasion.2020.RUSSIAN.1080p.BluRay.REMUX.AVC.DTS-HD.MA.5.1-FGT
Language : English
Default : No
Forced : No
Original source medium : Blu-ray

Audio #1
ID : 2
ID in the original source medium : 4353 (0x1101)
Format : DTS XLL
Format/Info : Digital Theater Systems
Commercial name : DTS-HD Master Audio
Codec ID : A_DTS
Duration : 2 h 13 min
Bit rate mode : Variable
Bit rate : 3 989 kb/s
Channel(s) : 6 channels
Channel layout : C L R Ls Rs LFE
Sampling rate : 48.0 kHz
Frame rate : 93.750 FPS (512 SPF)
Bit depth : 24 bits
Compression mode : Lossless
Stream size : 3.72 GiB (9%)
Title : Attraction.2.Invasion.2020.RUSSIAN.1080p.BluRay.REMUX.AVC.DTS-HD.MA.5.1-FGT
Language : Russian
Default : Yes
Forced : No
Original source medium : Blu-ray

Audio #2
ID : 3
ID in the original source medium : 4352 (0x1100)
Format : DTS XLL
Format/Info : Digital Theater Systems
Commercial name : DTS-HD Master Audio
Codec ID : A_DTS
Duration : 2 h 13 min
Bit rate mode : Variable
Bit rate : 3 770 kb/s
Channel(s) : 6 channels
Channel layout : C L R Ls Rs LFE
Sampling rate : 48.0 kHz
Frame rate : 93.750 FPS (512 SPF)
Bit depth : 24 bits
Compression mode : Lossless
Stream size : 3.51 GiB (9%)
Title : Attraction.2.Invasion.2020.RUSSIAN.1080p.BluRay.REMUX.AVC.DTS-HD.MA.5.1-FGT
Language : English
Default : No
Forced : No
Original source medium : Blu-ray

Text #1
ID : 4
Format : UTF-8
Codec ID : S_TEXT/UTF8
Codec ID/Info : UTF-8 Plain Text
Duration : 1 h 57 min
Bit rate : 51 b/s
Count of elements : 1346
Stream size : 44.3 KiB (0%)
Title : English-FOR-RUSSIAN-SRT
Language : English
Default : Yes
Forced : No

Text #2
ID : 5
Format : UTF-8
Codec ID : S_TEXT/UTF8
Codec ID/Info : UTF-8 Plain Text
Duration : 1 h 41 min
Bit rate : 0 b/s
Count of elements : 23
Stream size : 561 Bytes (0%)
Title : English-FOR-ENGLISH.DUB-SRT
Language : English
Default : No
Forced : No

Text #3
ID : 6
ID in the original source medium : 4608 (0x1200)
Format : PGS
Muxing mode : zlib
Codec ID : S_HDMV/PGS
Codec ID/Info : Picture based subtitle format used on BDs/HD-DVDs
Duration : 1 h 41 min
Bit rate : 528 b/s
Count of elements : 46
Stream size : 392 KiB (0%)
Title : English-FOR-ENGLISH.DUB-PGS
Language : English
Default : No
Forced : No
Original source medium : Blu-ray

Text #4
ID : 7
ID in the original source medium : 4609 (0x1201)
Format : PGS
Muxing mode : zlib
Codec ID : S_HDMV/PGS
Codec ID/Info : Picture based subtitle format used on BDs/HD-DVDs
Duration : 1 h 58 min
Bit rate : 38.2 kb/s
Count of elements : 3210
Stream size : 32.4 MiB (0%)
Title : English-FOR-RUSSIAN-PGS
Language : English
Default : No
Forced : No
Original source medium : Blu-ray

Text #5
ID : 8
ID in the original source medium : 4610 (0x1202)
Format : PGS
Muxing mode : zlib
Codec ID : S_HDMV/PGS
Codec ID/Info : Picture based subtitle format used on BDs/HD-DVDs
Duration : 1 h 57 min
Bit rate : 30.7 kb/s
Count of elements : 2692
Stream size : 25.8 MiB (0%)
Title : English-PGS
Language : English
Default : No
Forced : No
Original source medium : Blu-ray

Menu
00:00:00.000 : en:Chapter 01
00:07:12.515 : en:Chapter 02
00:15:45.110 : en:Chapter 03
00:22:50.369 : en:Chapter 04
00:29:36.274 : en:Chapter 05
00:38:16.585 : en:Chapter 06
00:48:11.805 : en:Chapter 07
00:55:30.994 : en:Chapter 08
01:03:02.278 : en:Chapter 09
01:12:52.826 : en:Chapter 10
01:19:55.832 : en:Chapter 11
01:28:00.066 : en:Chapter 12
01:36:07.845 : en:Chapter 13
01:41:54.817 : en:Chapter 14
01:51:54.749 : en:Chapter 15
01:59:26.868 : en:Chapter 16
02:13:26.456 : en:Chapter 17

本帖子中包含更多资源

您需要 登录 才可以下载或查看,没有帐号?立即注册

x
回复

使用道具 举报

0

主题

1548

帖子

1万

积分

VIP永久

Rank: 12Rank: 12Rank: 12

积分
11821
QQ
发表于 2020-9-19 11:05:52 | 显示全部楼层
感谢楼主分享!!!
回复

使用道具 举报

0

主题

712

帖子

4415

积分

论坛元老

Rank: 8Rank: 8

积分
4415
发表于 2020-9-19 17:30:55 | 显示全部楼层
感谢楼主分享
回复

使用道具 举报

0

主题

466

帖子

4462

积分

论坛元老

Rank: 8Rank: 8

积分
4462
发表于 2020-9-27 07:57:04 | 显示全部楼层
感谢楼主分享
回复

使用道具 举报

0

主题

155

帖子

1767

积分

VIP永久

Rank: 12Rank: 12Rank: 12

积分
1767
发表于 2021-2-16 15:16:48 | 显示全部楼层

感谢楼主分享
回复

使用道具 举报

0

主题

852

帖子

4540

积分

论坛元老

Rank: 8Rank: 8

积分
4540
发表于 2021-2-16 17:35:12 | 显示全部楼层
谢谢楼主分享
回复

使用道具 举报

0

主题

1900

帖子

5969

积分

论坛元老

Rank: 8Rank: 8

积分
5969
发表于 2021-5-20 07:19:05 | 显示全部楼层

感谢楼主分享!!
回复

使用道具 举报

0

主题

18

帖子

79

积分

注册会员

Rank: 2

积分
79
发表于 2022-8-8 08:18:42 | 显示全部楼层
呵呵哈哈哈不错不错
回复

使用道具 举报

您需要登录后才可以回帖 登录 | 立即注册

本版积分规则

QQ|Archiver|手机版|小黑屋|原盘天堂 好多盘 点击这里给我发消息

GMT+8, 2022-10-8 04:00 , Processed in 0.057699 second(s), 25 queries .

Powered by Discuz! X3.4

Copyright © 2001-2021, Tencent Cloud.

快速回复 返回顶部 返回列表