请选择 进入手机版 | 继续访问电脑版
本站原来Q群已取消,请原Q群会员和其他未入群会员加原盘天堂新官方QQ群713428235【盘盘多】,验证信息填写您在论坛的会员名,不填会员名的无法入群哈,进群后修改您的群名片名字为您在论坛的会员名,请务必修改,否则群成员多了不知道您是哪个会员,无法为您发送高速链接!

原盘天堂

 找回密码
 立即注册
查看: 49|回复: 6

2d蓝光原盘bdmv 萨尔茨堡音乐节开幕音乐会[中字]2011 blu-ray 1080i avc dts-hd 5.1[21.68 GB]

[复制链接]

5407

主题

5920

帖子

129万

积分

管理员

Rank: 18Rank: 18Rank: 18Rank: 18Rank: 18

积分
1291336
发表于 2020-9-16 09:31:10 | 显示全部楼层 |阅读模式




萨尔茨堡音乐节开幕音乐会(2011)

大小: 21.68 G 清晰度: 1080I 人气: 47
视频: AVC, 29.970fps, 16:9 实际片长: 1小时26分42秒
音频:
德语, 5.1声道, DTS-HDMA, 48KHz
字幕:中文/英语/德语/朝鲜语韩语/法语/西班牙语
标签:BDMV
又名:2011萨尔茨堡音乐节开幕音乐会
类型:音乐
国家:德国
上映:2011
片长:1小时26分42秒

剧情介绍:

     2011 萨尔茨堡音乐节节目单 音乐会部分: 1、 维也纳爱乐乐团音乐会: 表演者:Anna Prohaska, Dorothea Röschmann, Elisabeth Kulman, Johan Botha 指挥:皮埃尔布列兹 曲目:ALBAN BERG • Lulu Suite – Symphonic Pieces from the Opera Lulu for Coloratura Soprano and Orchestra ALBAN BERG • Der Wein – Concert Aria for Soprano and Orchestra GUSTAV MAHLER • Das klagende Lied for Solo Voices, Mixed Choir and Orchestra 表演者:蕾妮弗莱明 指挥:克里斯蒂安蒂勒曼 曲目:RICHARD STRAUSS • Befreit, op. 39/4 RICHARD STRAUSS • Winterliebe, op. 48/5 RICHARD STRAUSS • Traum durch die Dämmerung, op. 29/1 RICHARD STRAUSS • Gesang der Apollopriesterin, op. 33/2 RICHARD STRAUSS • Scene from the Opera Arabella RICHARD STRAUSS • Eine Alpensinfonie, op. 64 表演者:Krassimira Stoyanova, Olga Borodina, Saimir Pirgu, Ildar Abdrazakov 指挥:里卡多 穆蒂 曲目:GIUSEPPE VERDI • Messa di Requiem for Solo Voices, Choir and Orchestra 表演者:郎朗 指挥:马里斯 杨颂斯 曲目:IGOR STRAVINSKY • Petrushka – Burlesque in Four Scenes FRANZ LISZT • Concerto for Piano and Orchestra No. 1 in E flat MAURICE RAVEL • La Valse – Poème choréographique 表演者:Christine Schäfer, Michael Volle 指挥:弗朗茨莫斯特 曲目:FRANZ SCHUBERT • String Quartet in D minor, D. 810 – Death and the Maiden ALEXANDER ZEMLINSKY • Lyric Symphony in Seven Songs, after Poems Rabindranath Tagore, for Soprano, Baritone and Orchestra, op. 18

DISC INFO:

Disc Title:    SALZBURG OPENING CONCERT 2011
Disc Size:     23,278,568,189 bytes
Protection:    AACS
BD-Java:       No
BDInfo:       0.5.8

PLAYLIST REPORT:

Name:              00001.MPLS
Length:             1:26:42.764 (h:m:s.ms)
Size:              22,130,835,456 bytes
Total Bitrate:        34.03 Mbps

VIDEO:

Codec              Bitrate          Description   
-----              -------          -----------   
MPEG-4 AVC Video      27416 kbps         1080i / 29.970 fps / 16:9 / High Profile 4.1

AUDIO:

Codec                   Language      Bitrate      Description   
-----                   --------      -------      -----------   
LPCM Audio                German         2304 kbps      2.0 / 48 kHz / 2304 kbps / 24-bit
DTS-HD Master Audio         German         2520 kbps      5.1 / 48 kHz / 2520 kbps / 24-bit (DTS Core: 5.1 / 48 kHz / 1509 kbps / 24-bit)

SUBTITLES:

Codec                   Language      Bitrate      Description   
-----                   --------      -------      -----------   
Presentation Graphics        German        5.624 kbps               
Presentation Graphics        English       5.434 kbps               
Presentation Graphics        French        5.426 kbps               
Presentation Graphics        Spanish       5.586 kbps               
Presentation Graphics        Chinese       4.776 kbps               
Presentation Graphics        Korean        5.008 kbps               

FILES:

Name          Time In       Length       Size          Total Bitrate  
----         -------      ------       ----         -------------  
00001.M2TS     0:00:00.000    1:26:24.679    22,121,189,376  34,133      
00000.M2TS     1:26:24.679    0:00:09.042    4,823,040     4,267         
00005.M2TS     1:26:33.721    0:00:09.042    4,823,040     4,267   

本帖子中包含更多资源

您需要 登录 才可以下载或查看,没有帐号?立即注册

x
回复

使用道具 举报

0

主题

18

帖子

138

积分

注册会员

Rank: 2

积分
138
发表于 2020-9-16 09:50:23 | 显示全部楼层
thankyou for share
回复

使用道具 举报

0

主题

18

帖子

138

积分

注册会员

Rank: 2

积分
138
发表于 2020-9-16 09:51:04 | 显示全部楼层
thankyou for share
回复

使用道具 举报

0

主题

619

帖子

4981

积分

VIP永久

Rank: 12Rank: 12Rank: 12

积分
4981
发表于 2020-9-16 09:56:28 | 显示全部楼层
感谢楼主分享!!!
回复

使用道具 举报

0

主题

269

帖子

3176

积分

论坛元老

Rank: 8Rank: 8

积分
3176
发表于 2020-9-16 13:18:24 | 显示全部楼层
GOOD JOB
THANKS FOR SHARING
回复

使用道具 举报

0

主题

361

帖子

1978

积分

金牌会员

Rank: 6Rank: 6

积分
1978
发表于 5 天前 | 显示全部楼层
感谢楼主分享
回复

使用道具 举报

0

主题

610

帖子

2741

积分

金牌会员

Rank: 6Rank: 6

积分
2741
发表于 前天 20:52 | 显示全部楼层
感谢楼主分享高清影片
回复

使用道具 举报

您需要登录后才可以回帖 登录 | 立即注册

本版积分规则

QQ|Archiver|手机版|小黑屋|原盘天堂 盘盘多 点击这里给我发消息

GMT+8, 2020-9-24 06:14 , Processed in 0.070964 second(s), 24 queries .

Powered by Discuz! X3.4

Copyright © 2001-2020, Tencent Cloud.

快速回复 返回顶部 返回列表