请选择 进入手机版 | 继续访问电脑版
本站原来Q群已取消,请原Q群会员和其他未入群会员加原盘天堂新官方QQ群713428235【盘盘多】,验证信息填写您在论坛的会员名,不填会员名的无法入群哈,进群后修改您的群名片名字为您在论坛的会员名,请务必修改,否则群成员多了不知道您是哪个会员,无法为您发送高速链接!

原盘天堂

 找回密码
 立即注册
查看: 69|回复: 3

2d蓝光原盘bdmv 乜代宗师 国粤语中字 the.grand.grandmaster.2020.chinese.1080p.bluray.avc.truehd.5.1[22.11 GB]

[复制链接]

5407

主题

5920

帖子

129万

积分

管理员

Rank: 18Rank: 18Rank: 18Rank: 18Rank: 18

积分
1291336
发表于 2020-9-15 22:28:47 | 显示全部楼层 |阅读模式






乜代宗师 乜代宗師 (2020)

导演: 黄子华
编剧: 黄子华 / 钟继昌
主演: 刘心悠 / 黄子华 / 泰臣 / 罗天池 / 许绍雄 / 更多...
类型: 剧情 / 喜剧
制片国家/地区: 中国香港
语言: 粤语
上映日期: 2020-01-23(中国香港)
片长: 117分钟
又名: The Grand Grandmaster

豆瓣评分
4.6
2289人评价
5星4.8%
4星5.7%
3星27.0%
2星39.2%
1星23.3%
好于 5% 喜剧片
好于 0% 剧情片

剧情简介 · · · · · ·
  马飞龙是马家雷拳第十九代传人,却因一次意外中,于街头众目睽睽下被一名女途人击倒,而大出洋相,一夜之间身败名裂,沦为「乜代宗师」。后来马飞龙从记者口中知道女途人大有来头,原来她是香港西洋拳坛传奇人物,曾经拥有四十场不败纪录的奇女子—陈真!

DISC INFO:

Disc Title:     The.Grand.Grandmaster.2020.CHINESE.1080p.BluRay.AVC.TrueHD.5.1-FGT
Disc Size:      23,736,879,916 bytes
Protection:     AACS
BDInfo:         0.7.5.9 (compatible layout created by DVDFab 11.0.8.7)

PLAYLIST REPORT:

Name:                   00001.MPLS  
Length:                 1:57:26.750 (h:m:s.ms)
Size:                   23,049,990,144 bytes
Total Bitrate:          26.17 Mbps

VIDEO:

Codec                   Bitrate             Description   
-----                   -------             -----------   
MPEG-4 AVC Video        15799 kbps          1080p / 24 fps / 16:9 / High Profile 4.1

AUDIO:

Codec                           Language        Bitrate         Description   
-----                           --------        -------         -----------   
Dolby TrueHD Audio              Chinese         3543 kbps       5.1 / 96 kHz / 2903 kbps / 16-bit (AC3 Core: 5.1-EX / 48 kHz / 640 kbps)
Dolby TrueHD Audio              Chinese         3545 kbps       5.1 / 96 kHz / 2905 kbps / 16-bit (AC3 Core: 5.1-EX / 48 kHz / 640 kbps)

SUBTITLES:

Codec                           Language        Bitrate         Description   
-----                           --------        -------         -----------   
Presentation Graphics           Chinese         30.753 kbps                    
Presentation Graphics           English         30.931 kbps         

Video
ID : 1
ID in the original source medium : 4113 (0x1011)
Format : AVC
Format/Info : Advanced Video Codec
Format profile : [email protected]
Format settings : CABAC / 4 Ref Frames
Format settings, CABAC : Yes
Format settings, Reference frames : 4 frames
Codec ID : V_MPEG4/ISO/AVC
Duration : 1 h 57 min
Bit rate mode : Variable
Bit rate : 15.6 Mb/s
Maximum bit rate : 16.0 Mb/s
Width : 1 920 pixels
Height : 1 080 pixels
Display aspect ratio : 16:9
Frame rate mode : Constant
Frame rate : 24.000 FPS
Color space : YUV
Chroma subsampling : 4:2:0
Bit depth : 8 bits
Scan type : Progressive
Bits/(Pixel*Frame) : 0.313
Stream size : 12.8 GiB (50%)
Title : The.Grand.Grandmaster.2020.CHINESE.1080p.BluRay.REMUX.AVC.DTS-HD.MA.TrueHD.5.1-FGT
Language : English
Default : No
Forced : No
Original source medium : Blu-ray

Audio #1
ID : 2
ID in the original source medium : 4352 (0x1100)
Format : MLP FBA
Format/Info : Meridian Lossless Packing FBA
Commercial name : Dolby TrueHD
Codec ID : A_TRUEHD
Duration : 1 h 57 min
Bit rate mode : Variable
Bit rate : 2 903 kb/s
Maximum bit rate : 4 362 kb/s
Channel(s) : 6 channels
Channel layout : L R C LFE Ls Rs
Sampling rate : 96.0 kHz
Frame rate : 1 200.000 FPS (80 SPF)
Compression mode : Lossless
Stream size : 2.38 GiB (9%)
Title : The.Grand.Grandmaster.2020.CHINESE.1080p.BluRay.REMUX.AVC.DTS-HD.MA.TrueHD.5.1-FGT
Language : Chinese
Default : Yes
Forced : No
Original source medium : Blu-ray

Audio #2
ID : 3
Format : DTS XLL
Format/Info : Digital Theater Systems
Commercial name : DTS-HD Master Audio
Codec ID : A_DTS
Duration : 1 h 57 min
Bit rate mode : Variable
Bit rate : 4 178 kb/s
Channel(s) : 6 channels
Channel layout : C L R Ls Rs LFE
Sampling rate : 96.0 kHz
Frame rate : 187.500 FPS (512 SPF)
Bit depth : 24 bits
Compression mode : Lossless
Stream size : 3.43 GiB (13%)
Title : The.Grand.Grandmaster.2020.CHINESE.1080p.BluRay.REMUX.AVC.DTS-HD.MA.TrueHD.5.1-FGT
Language : Chinese
Default : No
Forced : No

Audio #3
ID : 4
ID in the original source medium : 4352 (0x1100)
Format : AC-3
Format/Info : Audio Coding 3
Commercial name : Dolby Digital
Codec ID : A_AC3
Duration : 1 h 57 min
Bit rate mode : Constant
Bit rate : 640 kb/s
Channel(s) : 6 channels
Channel layout : L R C LFE Ls Rs
Sampling rate : 48.0 kHz
Frame rate : 31.250 FPS (1536 SPF)
Bit depth : 16 bits
Compression mode : Lossy
Stream size : 538 MiB (2%)
Title : The.Grand.Grandmaster.2020.CHINESE.1080p.BluRay.REMUX.AVC.DTS-HD.MA.TrueHD.5.1-FGT
Language : Chinese
Service kind : Complete Main
Default : No
Forced : No
Original source medium : Blu-ray

Audio #4
ID : 5
ID in the original source medium : 4353 (0x1101)
Format : MLP FBA
Format/Info : Meridian Lossless Packing FBA
Commercial name : Dolby TrueHD
Codec ID : A_TRUEHD
Duration : 1 h 57 min
Bit rate mode : Variable
Bit rate : 2 905 kb/s
Maximum bit rate : 4 362 kb/s
Channel(s) : 6 channels
Channel layout : L R C LFE Ls Rs
Sampling rate : 96.0 kHz
Frame rate : 1 200.000 FPS (80 SPF)
Compression mode : Lossless
Stream size : 2.38 GiB (9%)
Title : The.Grand.Grandmaster.2020.CHINESE.1080p.BluRay.REMUX.AVC.DTS-HD.MA.TrueHD.5.1-FGT
Language : Chinese
Default : No
Forced : No
Original source medium : Blu-ray

Audio #5
ID : 6
Format : DTS XLL
Format/Info : Digital Theater Systems
Commercial name : DTS-HD Master Audio
Codec ID : A_DTS
Duration : 1 h 57 min
Bit rate mode : Variable
Bit rate : 4 178 kb/s
Channel(s) : 6 channels
Channel layout : C L R Ls Rs LFE
Sampling rate : 96.0 kHz
Frame rate : 187.500 FPS (512 SPF)
Bit depth : 24 bits
Compression mode : Lossless
Stream size : 3.43 GiB (13%)
Title : The.Grand.Grandmaster.2020.CHINESE.1080p.BluRay.REMUX.AVC.DTS-HD.MA.TrueHD.5.1-FGT
Language : Chinese
Default : No
Forced : No

Audio #6
ID : 7
ID in the original source medium : 4353 (0x1101)
Format : AC-3
Format/Info : Audio Coding 3
Commercial name : Dolby Digital
Codec ID : A_AC3
Duration : 1 h 57 min
Bit rate mode : Constant
Bit rate : 640 kb/s
Channel(s) : 6 channels
Channel layout : L R C LFE Ls Rs
Sampling rate : 48.0 kHz
Frame rate : 31.250 FPS (1536 SPF)
Bit depth : 16 bits
Compression mode : Lossy
Stream size : 538 MiB (2%)
Title : The.Grand.Grandmaster.2020.CHINESE.1080p.BluRay.REMUX.AVC.DTS-HD.MA.TrueHD.5.1-FGT
Language : Chinese
Service kind : Complete Main
Default : No
Forced : No
Original source medium : Blu-ray

Text #1
ID : 8
Format : UTF-8
Codec ID : S_TEXT/UTF8
Codec ID/Info : UTF-8 Plain Text
Duration : 1 h 57 min
Bit rate : 46 b/s
Count of elements : 1776
Stream size : 40.3 KiB (0%)
Title : English-SRT
Language : English
Default : Yes
Forced : No

Text #2
ID : 9
ID in the original source medium : 4608 (0x1200)
Format : PGS
Muxing mode : zlib
Codec ID : S_HDMV/PGS
Codec ID/Info : Picture based subtitle format used on BDs/HD-DVDs
Duration : 1 h 56 min
Bit rate : 31.0 kb/s
Count of elements : 2676
Stream size : 25.8 MiB (0%)
Title : Chinese-PGS
Language : Chinese
Default : No
Forced : No
Original source medium : Blu-ray

Text #3
ID : 10
ID in the original source medium : 4609 (0x1201)
Format : PGS
Muxing mode : zlib
Codec ID : S_HDMV/PGS
Codec ID/Info : Picture based subtitle format used on BDs/HD-DVDs
Duration : 1 h 56 min
Bit rate : 31.2 kb/s
Count of elements : 2676
Stream size : 26.0 MiB (0%)
Title : English-PGS
Language : English
Default : No
Forced : No
Original source medium : Blu-ray

Menu
00:00:00.000 : en:Chapter 01
00:05:08.708 : en:Chapter 02
00:09:31.458 : en:Chapter 03
00:21:53.041 : en:Chapter 04
00:26:37.625 : en:Chapter 05
00:31:58.791 : en:Chapter 06
00:38:19.500 : en:Chapter 07
00:43:03.250 : en:Chapter 08
00:48:41.791 : en:Chapter 09
00:53:12.833 : en:Chapter 10
01:00:41.375 : en:Chapter 11
01:06:45.708 : en:Chapter 12
01:12:49.666 : en:Chapter 13
01:17:20.833 : en:Chapter 14
01:20:55.333 : en:Chapter 15
01:26:00.416 : en:Chapter 16
01:29:25.250 : en:Chapter 17
01:34:55.458 : en:Chapter 18
01:40:14.250 : en:Chapter 19
01:50:56.125 : en:Chapter 20

本帖子中包含更多资源

您需要 登录 才可以下载或查看,没有帐号?立即注册

x
回复

使用道具 举报

0

主题

619

帖子

4981

积分

VIP永久

Rank: 12Rank: 12Rank: 12

积分
4981
发表于 2020-9-16 09:55:56 | 显示全部楼层
感谢楼主分享!!!
回复

使用道具 举报

0

主题

88

帖子

493

积分

VIP月

Rank: 9Rank: 9Rank: 9

积分
493
发表于 2020-9-16 14:35:36 | 显示全部楼层
感谢楼主分享!!!
回复

使用道具 举报

0

主题

177

帖子

1282

积分

金牌会员

Rank: 6Rank: 6

积分
1282
发表于 4 天前 | 显示全部楼层
2d蓝光原盘bdmv 乜代宗师 国粤语中字
回复

使用道具 举报

您需要登录后才可以回帖 登录 | 立即注册

本版积分规则

QQ|Archiver|手机版|小黑屋|原盘天堂 盘盘多 点击这里给我发消息

GMT+8, 2020-9-24 06:05 , Processed in 0.061660 second(s), 24 queries .

Powered by Discuz! X3.4

Copyright © 2001-2020, Tencent Cloud.

快速回复 返回顶部 返回列表