请选择 进入手机版 | 继续访问电脑版
本站原来Q群已取消,请原Q群会员和其他未入群会员加原盘天堂新官方QQ群713428235【盘盘多】,验证信息填写您在论坛的会员名,不填会员名的无法入群哈,进群后修改您的群名片名字为您在论坛的会员名,请务必修改,否则群成员多了不知道您是哪个会员,无法为您发送高速链接!

原盘天堂

 找回密码
 立即注册
查看: 54|回复: 3

4k蓝光原盘bdmv 迷魂记 英语原版 vertigo.1958.2160p.bluray.hevc.dts-x.7.1[91.89 GB]

[复制链接]

5407

主题

5920

帖子

129万

积分

管理员

Rank: 18Rank: 18Rank: 18Rank: 18Rank: 18

积分
1291336
发表于 2020-9-14 09:50:02 | 显示全部楼层 |阅读模式








迷魂记 Vertigo (1958)

导演: 阿尔弗雷德·希区柯克
编剧: 亚历克·科佩尔 / 萨缪尔·A·泰勒 / 皮埃尔·布瓦洛 / 托马·纳西雅克 / 马克斯韦尔·安德森
主演: 詹姆斯·斯图尔特 / 金·诺瓦克 / 芭芭拉·贝尔·戈迪斯 / 汤姆·赫尔莫 / 亨瑞·琼斯 / 更多...
类型: 爱情 / 悬疑 / 惊悚
制片国家/地区: 美国
语言: 英语
上映日期: 1958-05-09(美国)
片长: 128 分钟
又名: 眩晕 / Alfred Hitchcock's Vertigo

豆瓣评分
8.6
78330人评价
5星43.8%
4星44.8%
3星10.5%
2星0.7%
1星0.2%
好于 96% 悬疑片
好于 97% 惊悚片

剧情简介 · · · · · ·
  退役警探约翰·弗格森(詹姆斯·斯图尔特 James Stewart 饰)的同学加文·埃尔斯特(汤姆·赫尔莫 Tom Helmore 饰)是造船商。他请求约翰跟踪自己的妻子,并称妻子经常被鬼魂附身。随后,约翰按照加文的指示,在厄尼餐厅见到了一位美丽的女人(金姆·诺瓦克 Kim Novak 饰)。经过跟踪,约翰发现女人确有不同寻常的行为:开车出门,去花店买花,去墓园在卡洛塔·巴尔德斯的碑前驻足,去荣勋宫博物馆凝视卡洛塔画像,最后进入麦基屈克旅馆并出现在二楼的一扇窗前。约翰随即进入旅馆调查,发现女人登记名为卡洛塔·巴尔德斯,但其房中无人。卡洛塔·巴尔德斯究竟是何方神圣,鬼魂真的能附身活人吗?

迷魂记 Vertigo 获奖情况
第31届奥斯卡金像奖  (1959)
最佳音响(提名) George Dutton
最佳艺术指导和布景(提名) 萨姆·库默 / Frank R. McKelvy / 亨利·巴姆斯泰德 / 哈尔·佩雷拉

DISC INFO:

Disc Title:     Vertigo.1958.MULTi.COMPLETE.UHD.BLURAY-PRECELL
Disc Size:      98,662,688,730 bytes
Protection:     AACS2
Extras:         Ultra HD, BD-Java
BDInfo:         0.7.5.9 (compatible layout created by DVDFab 11.1.0.6)

PLAYLIST REPORT:

Name:                   00800.MPLS  
Length:                 2:08:27.699 (h:m:s.ms)
Size:                   90,233,978,880 bytes
Total Bitrate:          93.66 Mbps

VIDEO:

Codec                   Bitrate             Description   
-----                   -------             -----------   
MPEG-H HEVC Video       79793 kbps          2160p / 23.976 fps / 16:9 / Main 10 @ Level 5.1 @ High / 4:2:0 / 10 bits / 1000nits / HDR10 / BT.2020

AUDIO:

Codec                           Language        Bitrate         Description   
-----                           --------        -------         -----------   
DTS:X Master Audio              English         3188 kbps       7.1-X / 48 kHz / 3188 kbps / 24-bit (DTS Core: 5.1 / 48 kHz / 1509 kbps / 24-bit)
DTS Audio                       English         448 kbps        2.0 / 48 kHz / 448 kbps / 24-bit
DTS:X Master Audio              German          3189 kbps       7.1-X / 48 kHz / 3189 kbps / 24-bit (DTS Core: 5.1 / 48 kHz / 1509 kbps / 24-bit)
DTS Audio                       German          768 kbps        2.0 / 48 kHz / 768 kbps / 24-bit
DTS Audio                       Italian         448 kbps        2.0 / 48 kHz / 448 kbps / 24-bit
DTS Audio                       Spanish         448 kbps        2.0 / 48 kHz / 448 kbps / 24-bit
Dolby Digital Audio             English         192 kbps        2.0 / 48 kHz / 192 kbps

SUBTITLES:

Codec                           Language        Bitrate         Description   
-----                           --------        -------         -----------   
Presentation Graphics           English         32.633 kbps                    
Presentation Graphics           German          31.916 kbps                    
Presentation Graphics           Italian         27.424 kbps                    
Presentation Graphics           Spanish         28.053 kbps                    
Presentation Graphics           English         53.031 kbps                    
Presentation Graphics           German          54.463 kbps                    
Presentation Graphics           Italian         49.546 kbps                    
Presentation Graphics           Spanish         49.778 kbps                    
Presentation Graphics           German          0.079 kbps                     
Presentation Graphics           Italian         0.079 kbps                     
Presentation Graphics           Spanish         0.159 kbps   

Video
ID : 1
ID in the original source medium : 4113 (0x1011)
Format : HEVC
Format/Info : High Efficiency Video Coding
Format profile : Main [email protected]@High
HDR format : SMPTE ST 2086, HDR10 compatible
Codec ID : V_MPEGH/ISO/HEVC
Duration : 2 h 8 min
Bit rate : 79.8 Mb/s
Width : 3 840 pixels
Height : 2 160 pixels
Display aspect ratio : 16:9
Frame rate mode : Constant
Frame rate : 23.976 (24000/1001) FPS
Color space : YUV
Chroma subsampling : 4:2:0 (Type 2)
Bit depth : 10 bits
Bits/(Pixel*Frame) : 0.401
Stream size : 71.6 GiB (90%)
Title : Vertigo.1958.2160p.BluRay.REMUX.HEVC.DTS-X.7.1-FGT
Language : English
Default : No
Forced : No
Color range : Limited
Color primaries : BT.2020
Transfer characteristics : PQ
Matrix coefficients : BT.2020 non-constant
Mastering display color primaries : Display P3
Mastering display luminance : min: 0.0050 cd/m2, max: 1000 cd/m2
Maximum Content Light Level : 1000 cd/m2
Maximum Frame-Average Light Level : 63 cd/m2
Original source medium : Blu-ray

Audio #1
ID : 2
ID in the original source medium : 4352 (0x1100)
Format : DTS XLL X
Format/Info : Digital Theater Systems
Commercial name : DTS-HD Master Audio
Codec ID : A_DTS
Duration : 2 h 8 min
Bit rate mode : Variable
Bit rate : 3 188 kb/s
Channel(s) : 8 channels
Channel(s)_Original : Object Based
ChannelLayout_Original : Object Based
Sampling rate : 48.0 kHz
Frame rate : 93.750 FPS (512 SPF)
Bit depth : 24 bits
Stream size : 2.86 GiB (4%)
Title : Vertigo.1958.2160p.BluRay.REMUX.HEVC.DTS-X.7.1-FGT
Language : English
Default : Yes
Forced : No
Original source medium : Blu-ray

Audio #2
ID : 3
ID in the original source medium : 4353 (0x1101)
Format : DTS
Format/Info : Digital Theater Systems
Codec ID : A_DTS
Duration : 2 h 8 min
Bit rate mode : Constant
Bit rate : 447 kb/s
Channel(s) : 2 channels
Channel layout : Lt Rt
Sampling rate : 48.0 kHz
Frame rate : 93.750 FPS (512 SPF)
Bit depth : 24 bits
Compression mode : Lossy
Stream size : 411 MiB (1%)
Title : Vertigo.1958.2160p.BluRay.REMUX.HEVC.DTS-X.7.1-FGT
Language : English
Default : No
Forced : No
Original source medium : Blu-ray

Audio #3
ID : 4
ID in the original source medium : 4354 (0x1102)
Format : DTS XLL X
Format/Info : Digital Theater Systems
Commercial name : DTS-HD Master Audio
Codec ID : A_DTS
Duration : 2 h 8 min
Bit rate mode : Variable
Bit rate : 3 189 kb/s
Channel(s) : 8 channels
Channel(s)_Original : Object Based
ChannelLayout_Original : Object Based
Sampling rate : 48.0 kHz
Frame rate : 93.750 FPS (512 SPF)
Bit depth : 24 bits
Stream size : 2.86 GiB (4%)
Title : Vertigo.1958.2160p.BluRay.REMUX.HEVC.DTS-X.7.1-FGT
Language : German
Default : No
Forced : No
Original source medium : Blu-ray

Audio #4
ID : 5
ID in the original source medium : 4355 (0x1103)
Format : DTS
Format/Info : Digital Theater Systems
Codec ID : A_DTS
Duration : 2 h 8 min
Bit rate mode : Constant
Bit rate : 768 kb/s
Channel(s) : 2 channels
Channel layout : L R
Sampling rate : 48.0 kHz
Frame rate : 93.750 FPS (512 SPF)
Bit depth : 24 bits
Compression mode : Lossy
Stream size : 706 MiB (1%)
Title : Vertigo.1958.2160p.BluRay.REMUX.HEVC.DTS-X.7.1-FGT
Language : German
Default : No
Forced : No
Original source medium : Blu-ray

Audio #5
ID : 6
ID in the original source medium : 4356 (0x1104)
Format : DTS
Format/Info : Digital Theater Systems
Codec ID : A_DTS
Duration : 2 h 8 min
Bit rate mode : Constant
Bit rate : 447 kb/s
Channel(s) : 2 channels
Channel layout : L R
Sampling rate : 48.0 kHz
Frame rate : 93.750 FPS (512 SPF)
Bit depth : 24 bits
Compression mode : Lossy
Stream size : 411 MiB (1%)
Title : Vertigo.1958.2160p.BluRay.REMUX.HEVC.DTS-X.7.1-FGT
Language : Italian
Default : No
Forced : No
Original source medium : Blu-ray

Audio #6
ID : 7
ID in the original source medium : 4357 (0x1105)
Format : DTS
Format/Info : Digital Theater Systems
Codec ID : A_DTS
Duration : 2 h 8 min
Bit rate mode : Constant
Bit rate : 447 kb/s
Channel(s) : 2 channels
Channel layout : L R
Sampling rate : 48.0 kHz
Frame rate : 93.750 FPS (512 SPF)
Bit depth : 24 bits
Compression mode : Lossy
Stream size : 411 MiB (1%)
Title : Vertigo.1958.2160p.BluRay.REMUX.HEVC.DTS-X.7.1-FGT
Language : Spanish
Default : No
Forced : No
Original source medium : Blu-ray

Audio #7
ID : 8
ID in the original source medium : 4358 (0x1106)
Format : AC-3
Format/Info : Audio Coding 3
Commercial name : Dolby Digital
Codec ID : A_AC3
Duration : 2 h 8 min
Bit rate mode : Constant
Bit rate : 192 kb/s
Channel(s) : 2 channels
Channel layout : L R
Sampling rate : 48.0 kHz
Frame rate : 31.250 FPS (1536 SPF)
Compression mode : Lossy
Stream size : 176 MiB (0%)
Title : Vertigo.1958.2160p.BluRay.REMUX.HEVC.DTS-X.7.1-FGT
Language : English
Service kind : Complete Main
Default : No
Forced : No
Original source medium : Blu-ray

Text #1
ID : 9
Format : UTF-8
Codec ID : S_TEXT/UTF8
Codec ID/Info : UTF-8 Plain Text
Duration : 2 h 3 min
Bit rate : 50 b/s
Count of elements : 1288
Stream size : 45.3 KiB (0%)
Title : English-SRT
Language : English
Default : Yes
Forced : No

Text #2
ID : 10
ID in the original source medium : 4768 (0x12A0)
Format : PGS
Muxing mode : zlib
Codec ID : S_HDMV/PGS
Codec ID/Info : Picture based subtitle format used on BDs/HD-DVDs
Duration : 2 h 4 min
Bit rate : 33.8 kb/s
Count of elements : 2687
Stream size : 30.0 MiB (0%)
Title : English-PGS
Language : English
Default : No
Forced : No
Original source medium : Blu-ray

Text #3
ID : 11
ID in the original source medium : 4769 (0x12A1)
Format : PGS
Muxing mode : zlib
Codec ID : S_HDMV/PGS
Codec ID/Info : Picture based subtitle format used on BDs/HD-DVDs
Duration : 2 h 3 min
Bit rate : 33.1 kb/s
Count of elements : 2586
Stream size : 29.3 MiB (0%)
Title : German-PGS
Language : German
Default : No
Forced : No
Original source medium : Blu-ray

Text #4
ID : 12
ID in the original source medium : 4770 (0x12A2)
Format : PGS
Muxing mode : zlib
Codec ID : S_HDMV/PGS
Codec ID/Info : Picture based subtitle format used on BDs/HD-DVDs
Duration : 2 h 3 min
Bit rate : 28.4 kb/s
Count of elements : 2586
Stream size : 25.2 MiB (0%)
Title : Italian-PGS
Language : Italian
Default : No
Forced : No
Original source medium : Blu-ray

Text #5
ID : 13
ID in the original source medium : 4771 (0x12A3)
Format : PGS
Muxing mode : zlib
Codec ID : S_HDMV/PGS
Codec ID/Info : Picture based subtitle format used on BDs/HD-DVDs
Duration : 2 h 3 min
Bit rate : 29.1 kb/s
Count of elements : 2584
Stream size : 25.8 MiB (0%)
Title : Spanish-PGS
Language : Spanish
Default : No
Forced : No
Original source medium : Blu-ray

Text #6
ID : 14
ID in the original source medium : 4772 (0x12A4)
Format : PGS
Muxing mode : zlib
Codec ID : S_HDMV/PGS
Codec ID/Info : Picture based subtitle format used on BDs/HD-DVDs
Duration : 2 h 7 min
Bit rate : 53.3 kb/s
Count of elements : 3439
Stream size : 48.7 MiB (0%)
Title : English-COMMENTARY-PGS
Language : English
Default : No
Forced : No
Original source medium : Blu-ray

Text #7
ID : 15
ID in the original source medium : 4773 (0x12A5)
Format : PGS
Muxing mode : zlib
Codec ID : S_HDMV/PGS
Codec ID/Info : Picture based subtitle format used on BDs/HD-DVDs
Duration : 2 h 8 min
Bit rate : 54.6 kb/s
Count of elements : 3447
Stream size : 50.0 MiB (0%)
Title : German-COMMENTARY-PGS
Language : German
Default : No
Forced : No
Original source medium : Blu-ray

Text #8
ID : 16
ID in the original source medium : 4774 (0x12A6)
Format : PGS
Muxing mode : zlib
Codec ID : S_HDMV/PGS
Codec ID/Info : Picture based subtitle format used on BDs/HD-DVDs
Duration : 2 h 8 min
Bit rate : 49.6 kb/s
Count of elements : 3449
Stream size : 45.5 MiB (0%)
Title : Itlaian-COMMENTARY-PGS
Language : Italian
Default : No
Forced : No
Original source medium : Blu-ray

Text #9
ID : 17
ID in the original source medium : 4775 (0x12A7)
Format : PGS
Muxing mode : zlib
Codec ID : S_HDMV/PGS
Codec ID/Info : Picture based subtitle format used on BDs/HD-DVDs
Duration : 2 h 8 min
Bit rate : 49.9 kb/s
Count of elements : 3449
Stream size : 45.7 MiB (0%)
Title : Spanish-COMMENTARY-PGS
Language : Spanish
Default : No
Forced : No
Original source medium : Blu-ray

Text #10
ID : 18
ID in the original source medium : 4776 (0x12A8)
Format : PGS
Muxing mode : zlib
Codec ID : S_HDMV/PGS
Codec ID/Info : Picture based subtitle format used on BDs/HD-DVDs
Duration : 1 h 51 min
Bit rate : 90 b/s
Count of elements : 9
Stream size : 73.9 KiB (0%)
Title : German-FORCED-PGS
Language : German
Default : No
Forced : No
Original source medium : Blu-ray

Text #11
ID : 19
ID in the original source medium : 4777 (0x12A9)
Format : PGS
Muxing mode : zlib
Codec ID : S_HDMV/PGS
Codec ID/Info : Picture based subtitle format used on BDs/HD-DVDs
Duration : 1 h 51 min
Bit rate : 90 b/s
Count of elements : 11
Stream size : 74.2 KiB (0%)
Title : Italian-FORCED-PGS
Language : Italian
Default : No
Forced : No
Original source medium : Blu-ray

Text #12
ID : 20
ID in the original source medium : 4778 (0x12AA)
Format : PGS
Muxing mode : zlib
Codec ID : S_HDMV/PGS
Codec ID/Info : Picture based subtitle format used on BDs/HD-DVDs
Duration : 1 h 34 min
Bit rate : 215 b/s
Count of elements : 19
Stream size : 149 KiB (0%)
Title : Spanish-FORCED-PGS
Language : Spanish
Default : No
Forced : No
Original source medium : Blu-ray

Menu
00:00:00.000 : en:Chapter 01
00:03:24.996 : en:Chapter 02
00:05:00.717 : en:Chapter 03
00:11:19.970 : en:Chapter 04
00:16:52.970 : en:Chapter 05
00:22:13.957 : en:Chapter 06
00:25:42.707 : en:Chapter 07
00:27:45.955 : en:Chapter 08
00:33:52.572 : en:Chapter 09
00:38:19.255 : en:Chapter 10
00:40:18.124 : en:Chapter 11
00:42:56.574 : en:Chapter 12
00:43:56.091 : en:Chapter 13
00:53:08.101 : en:Chapter 14
00:58:23.500 : en:Chapter 15
01:02:04.971 : en:Chapter 16
01:05:31.260 : en:Chapter 17
01:08:35.945 : en:Chapter 18
01:12:31.096 : en:Chapter 19
01:16:00.222 : en:Chapter 20
01:18:17.150 : en:Chapter 21
01:23:47.689 : en:Chapter 22
01:25:26.371 : en:Chapter 23
01:29:02.879 : en:Chapter 24
01:31:39.619 : en:Chapter 25
01:38:07.172 : en:Chapter 26
01:42:22.427 : en:Chapter 27
01:45:29.072 : en:Chapter 28
01:49:14.965 : en:Chapter 29
01:52:06.553 : en:Chapter 30
01:57:30.168 : en:Chapter 31
01:59:29.162 : en:Chapter 32
02:02:06.027 : en:Chapter 33
02:05:58.092 : en:Chapter 34

本帖子中包含更多资源

您需要 登录 才可以下载或查看,没有帐号?立即注册

x
回复

使用道具 举报

0

主题

619

帖子

4981

积分

VIP永久

Rank: 12Rank: 12Rank: 12

积分
4981
发表于 2020-9-14 11:18:51 | 显示全部楼层

感谢楼主分享!!!
回复

使用道具 举报

0

主题

361

帖子

1978

积分

金牌会员

Rank: 6Rank: 6

积分
1978
发表于 2020-9-14 14:09:14 | 显示全部楼层
特定用户是什么?
回复

使用道具 举报

0

主题

139

帖子

1076

积分

金牌会员

Rank: 6Rank: 6

积分
1076
发表于 2020-9-15 08:51:50 | 显示全部楼层
多谢楼主无私分享
回复

使用道具 举报

您需要登录后才可以回帖 登录 | 立即注册

本版积分规则

QQ|Archiver|手机版|小黑屋|原盘天堂 盘盘多 点击这里给我发消息

GMT+8, 2020-9-24 06:10 , Processed in 0.066058 second(s), 24 queries .

Powered by Discuz! X3.4

Copyright © 2001-2020, Tencent Cloud.

快速回复 返回顶部 返回列表