请选择 进入手机版 | 继续访问电脑版
本站原来Q群已取消,请原Q群会员和其他未入群会员加原盘天堂新官方QQ群713428235【盘盘多】,验证信息填写您在论坛的会员名,不填会员名的无法入群哈,进群后修改您的群名片名字为您在论坛的会员名,请务必修改,否则群成员多了不知道您是哪个会员,无法为您发送高速链接!

原盘天堂

 找回密码
 立即注册
查看: 47|回复: 5

4k蓝光原盘bdmv 后窗 英语原版 rear.window.1954.2160p.bluray.hevc.dts-hd.ma.2.0[91.44 GB]

[复制链接]

5407

主题

5920

帖子

129万

积分

管理员

Rank: 18Rank: 18Rank: 18Rank: 18Rank: 18

积分
1291336
发表于 2020-9-14 08:14:24 | 显示全部楼层 |阅读模式








后窗 Rear Window (1954)

导演: 阿尔弗雷德·希区柯克
编剧: 约翰·迈克尔·海耶斯 / 康奈尔·伍尔里奇
主演: 詹姆斯·斯图尔特 / 格蕾丝·凯利 / 温戴尔·柯瑞 / 瑟尔玛·瑞特 / 雷蒙德·布尔 / 更多...
类型: 悬疑 / 惊悚
制片国家/地区: 美国
语言: 英语
上映日期: 1954-08-01(美国)
片长: 112 分钟
又名: Alfred Hitchcock's Rear Window / Fenêtre sur cour

豆瓣评分 引用
8.6
126630人评价
5星41.6%
4星46.8%
3星10.7%
2星0.6%
1星0.2%
好于 96% 悬疑片
好于 97% 惊悚片

剧情简介 · · · · · ·
  摄影师杰弗里斯(詹姆斯·斯图尔特 饰)因站在赛车道中间拍摄,断了左腿,只得在家静养七周。除了保险公司的护士斯特拉(西尔玛·里特 饰)和女友丽莎·卡罗尔·弗里蒙特(格雷斯·凯利 饰)每日前来照料,百无聊赖的杰弗里斯只能在窗前闲看邻居们的日常生活以打发时间。对面公寓的二楼住着人造珠宝推销员拉尔斯·托瓦尔德(雷蒙德·伯尔 饰)及妻子安娜(艾琳·温斯顿 饰),夫妻之间争吵不断。一个雨夜,杰弗里斯看到拉尔斯提着箱子外出数次。次日,杰弗里斯又看到拉尔斯用报纸包裹一把锯和一把刀。杰弗里斯起了疑心,他怀疑拉尔斯杀害了安娜并分尸抛弃。然而,杰弗里斯并未目击案发过程,也未见到尸体。那么真相究竟如何呢?杰弗里斯的推测只是他的臆想吗?为了证实他的推测,杰弗里斯要如何寻找证据呢?

后窗 Rear Window 获奖情况
第27届奥斯卡金像奖  (1955)
最佳导演(提名) 阿尔弗雷德·希区柯克
最佳编剧(提名) 约翰·迈克尔·海耶斯
彩色片最佳摄影(提名) 罗伯特·伯克斯
最佳录音(提名) 洛伦·L·里德
第15届威尼斯电影节  (1954)
主竞赛单元 金狮奖 (提名) 阿尔弗雷德·希区柯克

DISC INFO:

Disc Title:     Rear.Window.1954.MULTi.COMPLETE.UHD.BLURAY-PRECELL
Disc Size:      98,180,781,077 bytes
Protection:     AACS2
Extras:         Ultra HD, BD-Java
BDInfo:         0.7.5.9 (compatible layout created by DVDFab 11.1.0.6)

PLAYLIST REPORT:

Name:                   00800.MPLS  
Length:                 1:52:27.365 (h:m:s.ms)
Size:                   84,802,031,616 bytes
Total Bitrate:          100.55 Mbps

VIDEO:

Codec                   Bitrate             Description   
-----                   -------             -----------   
MPEG-H HEVC Video       90359 kbps          2160p / 23.976 fps / 16:9 / Main 10 @ Level 5.1 @ High / 4:2:0 / 10 bits / 1000nits / HDR10 / BT.2020

AUDIO:

Codec                           Language        Bitrate         Description   
-----                           --------        -------         -----------   
DTS-HD Master Audio             English         1771 kbps       2.0 / 48 kHz / 1771 kbps / 24-bit (DTS Core: 2.0 / 48 kHz / 1509 kbps / 24-bit)
DTS Audio                       French          448 kbps        2.0 / 48 kHz / 448 kbps / 24-bit
DTS Audio                       German          448 kbps        2.0 / 48 kHz / 448 kbps / 24-bit
DTS Audio                       Italian         448 kbps        2.0 / 48 kHz / 448 kbps / 24-bit
DTS Audio                       Spanish         448 kbps        2.0 / 48 kHz / 448 kbps / 24-bit
DTS Audio                       Polish          448 kbps        2.0 / 48 kHz / 448 kbps / 24-bit
Dolby Digital Audio             English         192 kbps        2.0 / 48 kHz / 192 kbps

SUBTITLES:

Codec                           Language        Bitrate         Description   
-----                           --------        -------         -----------   
Presentation Graphics           English         42.602 kbps                    
Presentation Graphics           French          34.707 kbps                    
Presentation Graphics           German          39.419 kbps                    
Presentation Graphics           Italian         35.064 kbps                    
Presentation Graphics           Spanish         37.119 kbps                    
Presentation Graphics           Dutch           28.492 kbps                    
Presentation Graphics           Danish          35.442 kbps                    
Presentation Graphics           Finnish         34.304 kbps                    
Presentation Graphics           Norwegian       31.113 kbps                    
Presentation Graphics           Swedish         29.304 kbps                    
Presentation Graphics           Czech           34.975 kbps                    
Presentation Graphics           Polish          33.936 kbps                    
Presentation Graphics           Hindi           35.424 kbps                    
Presentation Graphics           English         78.474 kbps                    
Presentation Graphics           French          69.734 kbps                    
Presentation Graphics           German          75.854 kbps                    
Presentation Graphics           Italian         69.928 kbps                    
Presentation Graphics           Spanish         75.296 kbps                    
Presentation Graphics           Polish          72.192 kbps                    
Presentation Graphics           French          0.112 kbps                     
Presentation Graphics           German          0.07 kbps                     
Presentation Graphics           Italian         0.055 kbps                     
Presentation Graphics           Spanish         0.048 kbps      

Video
ID : 1
ID in the original source medium : 4113 (0x1011)
Format : HEVC
Format/Info : High Efficiency Video Coding
Format profile : Main [email protected]@High
HDR format : SMPTE ST 2086, HDR10 compatible
Codec ID : V_MPEGH/ISO/HEVC
Duration : 1 h 52 min
Bit rate : 90.4 Mb/s
Width : 3 840 pixels
Height : 2 160 pixels
Display aspect ratio : 16:9
Frame rate mode : Constant
Frame rate : 23.976 (24000/1001) FPS
Color space : YUV
Chroma subsampling : 4:2:0 (Type 2)
Bit depth : 10 bits
Bits/(Pixel*Frame) : 0.454
Stream size : 71.0 GiB (95%)
Title : Rear.Window.1954.2160p.BluRay.REMUX.HEVC.DTS-HD.MA.2.0-FGT
Language : English
Default : No
Forced : No
Color range : Limited
Color primaries : BT.2020
Transfer characteristics : PQ
Matrix coefficients : BT.2020 non-constant
Mastering display color primaries : Display P3
Mastering display luminance : min: 0.0050 cd/m2, max: 1000 cd/m2
Maximum Content Light Level : 1000 cd/m2
Maximum Frame-Average Light Level : 29 cd/m2
Original source medium : Blu-ray

Audio #1
ID : 2
ID in the original source medium : 4352 (0x1100)
Format : DTS XLL
Format/Info : Digital Theater Systems
Commercial name : DTS-HD Master Audio
Codec ID : A_DTS
Duration : 1 h 52 min
Bit rate mode : Variable
Bit rate : 1 771 kb/s
Channel(s) : 2 channels
Channel layout : L R
Sampling rate : 48.0 kHz
Frame rate : 93.750 FPS (512 SPF)
Bit depth : 24 bits
Compression mode : Lossless
Stream size : 1.39 GiB (2%)
Title : Rear.Window.1954.2160p.BluRay.REMUX.HEVC.DTS-HD.MA.2.0-FGT
Language : English
Default : Yes
Forced : No
Original source medium : Blu-ray

Audio #2
ID : 3
ID in the original source medium : 4353 (0x1101)
Format : DTS
Format/Info : Digital Theater Systems
Codec ID : A_DTS
Duration : 1 h 52 min
Bit rate mode : Constant
Bit rate : 447 kb/s
Channel(s) : 2 channels
Channel layout : L R
Sampling rate : 48.0 kHz
Frame rate : 93.750 FPS (512 SPF)
Bit depth : 24 bits
Compression mode : Lossy
Stream size : 360 MiB (0%)
Title : Rear.Window.1954.2160p.BluRay.REMUX.HEVC.DTS-HD.MA.2.0-FGT
Language : French
Default : No
Forced : No
Original source medium : Blu-ray

Audio #3
ID : 4
ID in the original source medium : 4354 (0x1102)
Format : DTS
Format/Info : Digital Theater Systems
Codec ID : A_DTS
Duration : 1 h 52 min
Bit rate mode : Constant
Bit rate : 447 kb/s
Channel(s) : 2 channels
Channel layout : L R
Sampling rate : 48.0 kHz
Frame rate : 93.750 FPS (512 SPF)
Bit depth : 24 bits
Compression mode : Lossy
Stream size : 360 MiB (0%)
Title : Rear.Window.1954.2160p.BluRay.REMUX.HEVC.DTS-HD.MA.2.0-FGT
Language : German
Default : No
Forced : No
Original source medium : Blu-ray

Audio #4
ID : 5
ID in the original source medium : 4355 (0x1103)
Format : DTS
Format/Info : Digital Theater Systems
Codec ID : A_DTS
Duration : 1 h 52 min
Bit rate mode : Constant
Bit rate : 447 kb/s
Channel(s) : 2 channels
Channel layout : L R
Sampling rate : 48.0 kHz
Frame rate : 93.750 FPS (512 SPF)
Bit depth : 24 bits
Compression mode : Lossy
Stream size : 360 MiB (0%)
Title : Rear.Window.1954.2160p.BluRay.REMUX.HEVC.DTS-HD.MA.2.0-FGT
Language : Italian
Default : No
Forced : No
Original source medium : Blu-ray

Audio #5
ID : 6
ID in the original source medium : 4356 (0x1104)
Format : DTS
Format/Info : Digital Theater Systems
Codec ID : A_DTS
Duration : 1 h 52 min
Bit rate mode : Constant
Bit rate : 447 kb/s
Channel(s) : 2 channels
Channel layout : L R
Sampling rate : 48.0 kHz
Frame rate : 93.750 FPS (512 SPF)
Bit depth : 24 bits
Compression mode : Lossy
Stream size : 360 MiB (0%)
Title : Rear.Window.1954.2160p.BluRay.REMUX.HEVC.DTS-HD.MA.2.0-FGT
Language : Spanish
Default : No
Forced : No
Original source medium : Blu-ray

Audio #6
ID : 7
ID in the original source medium : 4357 (0x1105)
Format : DTS
Format/Info : Digital Theater Systems
Codec ID : A_DTS
Duration : 1 h 52 min
Bit rate mode : Constant
Bit rate : 447 kb/s
Channel(s) : 2 channels
Channel layout : L R
Sampling rate : 48.0 kHz
Frame rate : 93.750 FPS (512 SPF)
Bit depth : 24 bits
Compression mode : Lossy
Stream size : 360 MiB (0%)
Title : Rear.Window.1954.2160p.BluRay.REMUX.HEVC.DTS-HD.MA.2.0-FGT
Language : Polish
Default : No
Forced : No
Original source medium : Blu-ray

Audio #7
ID : 8
ID in the original source medium : 4358 (0x1106)
Format : AC-3
Format/Info : Audio Coding 3
Commercial name : Dolby Digital
Codec ID : A_AC3
Duration : 1 h 52 min
Bit rate mode : Constant
Bit rate : 192 kb/s
Channel(s) : 2 channels
Channel layout : L R
Sampling rate : 48.0 kHz
Frame rate : 31.250 FPS (1536 SPF)
Compression mode : Lossy
Stream size : 154 MiB (0%)
Title : Rear.Window.1954.2160p.BluRay.REMUX.HEVC.DTS-HD.MA.2.0-FGT
Language : English
Service kind : Complete Main
Default : No
Forced : No
Original source medium : Blu-ray

Text #1
ID : 9
Format : UTF-8
Codec ID : S_TEXT/UTF8
Codec ID/Info : UTF-8 Plain Text
Duration : 1 h 49 min
Bit rate : 63 b/s
Count of elements : 1381
Stream size : 51.1 KiB (0%)
Title : English-SRT
Language : English
Default : Yes
Forced : No

Text #2
ID : 10
ID in the original source medium : 4768 (0x12A0)
Format : PGS
Muxing mode : zlib
Codec ID : S_HDMV/PGS
Codec ID/Info : Picture based subtitle format used on BDs/HD-DVDs
Duration : 1 h 49 min
Bit rate : 43.7 kb/s
Count of elements : 2888
Stream size : 34.3 MiB (0%)
Title : English-PGS
Language : English
Default : No
Forced : No
Original source medium : Blu-ray

Text #3
ID : 11
ID in the original source medium : 4769 (0x12A1)
Format : PGS
Muxing mode : zlib
Codec ID : S_HDMV/PGS
Codec ID/Info : Picture based subtitle format used on BDs/HD-DVDs
Duration : 1 h 49 min
Bit rate : 35.5 kb/s
Count of elements : 2432
Stream size : 27.9 MiB (0%)
Title : French-PGS
Language : French
Default : No
Forced : No
Original source medium : Blu-ray

Text #4
ID : 12
ID in the original source medium : 4770 (0x12A2)
Format : PGS
Muxing mode : zlib
Codec ID : S_HDMV/PGS
Codec ID/Info : Picture based subtitle format used on BDs/HD-DVDs
Duration : 1 h 49 min
Bit rate : 40.3 kb/s
Count of elements : 2430
Stream size : 31.7 MiB (0%)
Title : German-PGS
Language : German
Default : No
Forced : No
Original source medium : Blu-ray

Text #5
ID : 13
ID in the original source medium : 4771 (0x12A3)
Format : PGS
Muxing mode : zlib
Codec ID : S_HDMV/PGS
Codec ID/Info : Picture based subtitle format used on BDs/HD-DVDs
Duration : 1 h 49 min
Bit rate : 35.9 kb/s
Count of elements : 2428
Stream size : 28.2 MiB (0%)
Title : Italian-PGS
Language : Italian
Default : No
Forced : No
Original source medium : Blu-ray

Text #6
ID : 14
ID in the original source medium : 4772 (0x12A4)
Format : PGS
Muxing mode : zlib
Codec ID : S_HDMV/PGS
Codec ID/Info : Picture based subtitle format used on BDs/HD-DVDs
Duration : 1 h 49 min
Bit rate : 38.0 kb/s
Count of elements : 2430
Stream size : 29.9 MiB (0%)
Title : Spanish-PGS
Language : Spanish
Default : No
Forced : No
Original source medium : Blu-ray

Text #7
ID : 15
ID in the original source medium : 4773 (0x12A5)
Format : PGS
Muxing mode : zlib
Codec ID : S_HDMV/PGS
Codec ID/Info : Picture based subtitle format used on BDs/HD-DVDs
Duration : 1 h 49 min
Bit rate : 29.1 kb/s
Count of elements : 1684
Stream size : 22.9 MiB (0%)
Title : Dutch-PGS
Language : Dutch
Default : No
Forced : No
Original source medium : Blu-ray

Text #8
ID : 16
ID in the original source medium : 4774 (0x12A6)
Format : PGS
Muxing mode : zlib
Codec ID : S_HDMV/PGS
Codec ID/Info : Picture based subtitle format used on BDs/HD-DVDs
Duration : 1 h 49 min
Bit rate : 36.3 kb/s
Count of elements : 2430
Stream size : 28.5 MiB (0%)
Title : Danish-PGS
Language : Danish
Default : No
Forced : No
Original source medium : Blu-ray

Text #9
ID : 17
ID in the original source medium : 4775 (0x12A7)
Format : PGS
Muxing mode : zlib
Codec ID : S_HDMV/PGS
Codec ID/Info : Picture based subtitle format used on BDs/HD-DVDs
Duration : 1 h 49 min
Bit rate : 35.1 kb/s
Count of elements : 2428
Stream size : 27.6 MiB (0%)
Title : Finnish-PGS
Language : Finnish
Default : No
Forced : No
Original source medium : Blu-ray

Text #10
ID : 18
ID in the original source medium : 4776 (0x12A8)
Format : PGS
Muxing mode : zlib
Codec ID : S_HDMV/PGS
Codec ID/Info : Picture based subtitle format used on BDs/HD-DVDs
Duration : 1 h 49 min
Bit rate : 31.8 kb/s
Count of elements : 2430
Stream size : 25.0 MiB (0%)
Title : Norwegian-PGS
Language : Norwegian
Default : No
Forced : No
Original source medium : Blu-ray

Text #11
ID : 19
ID in the original source medium : 4777 (0x12A9)
Format : PGS
Muxing mode : zlib
Codec ID : S_HDMV/PGS
Codec ID/Info : Picture based subtitle format used on BDs/HD-DVDs
Duration : 1 h 49 min
Bit rate : 30.0 kb/s
Count of elements : 2430
Stream size : 23.6 MiB (0%)
Title : Swedish-PGS
Language : Swedish
Default : No
Forced : No
Original source medium : Blu-ray

Text #12
ID : 20
ID in the original source medium : 4778 (0x12AA)
Format : PGS
Muxing mode : zlib
Codec ID : S_HDMV/PGS
Codec ID/Info : Picture based subtitle format used on BDs/HD-DVDs
Duration : 1 h 51 min
Bit rate : 35.2 kb/s
Count of elements : 2200
Stream size : 28.1 MiB (0%)
Title : Czech-PGS
Language : Czech
Default : No
Forced : No
Original source medium : Blu-ray

Text #13
ID : 21
ID in the original source medium : 4779 (0x12AB)
Format : PGS
Muxing mode : zlib
Codec ID : S_HDMV/PGS
Codec ID/Info : Picture based subtitle format used on BDs/HD-DVDs
Duration : 1 h 49 min
Bit rate : 34.7 kb/s
Count of elements : 2432
Stream size : 27.3 MiB (0%)
Title : Polish-PGS
Language : Polish
Default : No
Forced : No
Original source medium : Blu-ray

Text #14
ID : 22
ID in the original source medium : 4780 (0x12AC)
Format : PGS
Muxing mode : zlib
Codec ID : S_HDMV/PGS
Codec ID/Info : Picture based subtitle format used on BDs/HD-DVDs
Duration : 1 h 51 min
Bit rate : 35.6 kb/s
Count of elements : 2708
Stream size : 28.5 MiB (0%)
Title : Hindi-PGS
Language : Hindi
Default : No
Forced : No
Original source medium : Blu-ray

Text #15
ID : 23
ID in the original source medium : 4781 (0x12AD)
Format : PGS
Muxing mode : zlib
Codec ID : S_HDMV/PGS
Codec ID/Info : Picture based subtitle format used on BDs/HD-DVDs
Duration : 1 h 52 min
Bit rate : 78.8 kb/s
Count of elements : 3952
Stream size : 63.1 MiB (0%)
Title : English-COMMENTARY-PGS
Language : English
Default : No
Forced : No
Original source medium : Blu-ray

Text #16
ID : 24
ID in the original source medium : 4782 (0x12AE)
Format : PGS
Muxing mode : zlib
Codec ID : S_HDMV/PGS
Codec ID/Info : Picture based subtitle format used on BDs/HD-DVDs
Duration : 1 h 52 min
Bit rate : 70.0 kb/s
Count of elements : 3958
Stream size : 56.1 MiB (0%)
Title : French-COMMENTARY-PGS
Language : French
Default : No
Forced : No
Original source medium : Blu-ray

Text #17
ID : 25
ID in the original source medium : 4783 (0x12AF)
Format : PGS
Muxing mode : zlib
Codec ID : S_HDMV/PGS
Codec ID/Info : Picture based subtitle format used on BDs/HD-DVDs
Duration : 1 h 52 min
Bit rate : 76.1 kb/s
Count of elements : 3958
Stream size : 61.0 MiB (0%)
Title : German-COMMENTARY-PGS
Language : German
Default : No
Forced : No
Original source medium : Blu-ray

Text #18
ID : 26
ID in the original source medium : 4784 (0x12B0)
Format : PGS
Muxing mode : zlib
Codec ID : S_HDMV/PGS
Codec ID/Info : Picture based subtitle format used on BDs/HD-DVDs
Duration : 1 h 52 min
Bit rate : 70.2 kb/s
Count of elements : 3958
Stream size : 56.2 MiB (0%)
Title : Italian-COMMENTARY-PGS
Language : Italian
Default : No
Forced : No
Original source medium : Blu-ray

Text #19
ID : 27
ID in the original source medium : 4785 (0x12B1)
Format : PGS
Muxing mode : zlib
Codec ID : S_HDMV/PGS
Codec ID/Info : Picture based subtitle format used on BDs/HD-DVDs
Duration : 1 h 52 min
Bit rate : 75.6 kb/s
Count of elements : 3958
Stream size : 60.6 MiB (0%)
Title : Spanish-COMMENTARY-PGS
Language : Spanish
Default : No
Forced : No
Original source medium : Blu-ray

Text #20
ID : 28
ID in the original source medium : 4786 (0x12B2)
Format : PGS
Muxing mode : zlib
Codec ID : S_HDMV/PGS
Codec ID/Info : Picture based subtitle format used on BDs/HD-DVDs
Duration : 1 h 52 min
Bit rate : 72.4 kb/s
Count of elements : 3958
Stream size : 58.1 MiB (0%)
Title : Polish-COMMENTARY-PGS
Language : Polish
Default : No
Forced : No
Original source medium : Blu-ray

Text #21
ID : 29
ID in the original source medium : 4787 (0x12B3)
Format : PGS
Muxing mode : zlib
Codec ID : S_HDMV/PGS
Codec ID/Info : Picture based subtitle format used on BDs/HD-DVDs
Duration : 1 h 48 min
Bit rate : 115 b/s
Count of elements : 10
Stream size : 92.3 KiB (0%)
Title : French-FORCED-PGS
Language : French
Default : No
Forced : No
Original source medium : Blu-ray

Text #22
ID : 30
ID in the original source medium : 4788 (0x12B4)
Format : PGS
Muxing mode : zlib
Codec ID : S_HDMV/PGS
Codec ID/Info : Picture based subtitle format used on BDs/HD-DVDs
Duration : 1 h 48 min
Bit rate : 72 b/s
Count of elements : 6
Stream size : 57.7 KiB (0%)
Title : German-FORCED-PGS
Language : German
Default : No
Forced : No
Original source medium : Blu-ray

Text #23
ID : 31
ID in the original source medium : 4789 (0x12B5)
Format : PGS
Muxing mode : zlib
Codec ID : S_HDMV/PGS
Codec ID/Info : Picture based subtitle format used on BDs/HD-DVDs
Duration : 1 h 48 min
Bit rate : 57 b/s
Count of elements : 6
Stream size : 45.6 KiB (0%)
Title : itlaian-FORCED-PGS
Language : Italian
Default : No
Forced : No
Original source medium : Blu-ray

Text #24
ID : 32
ID in the original source medium : 4790 (0x12B6)
Format : PGS
Muxing mode : zlib
Codec ID : S_HDMV/PGS
Codec ID/Info : Picture based subtitle format used on BDs/HD-DVDs
Duration : 25 s 963 ms
Bit rate : 12.4 kb/s
Count of elements : 4
Stream size : 39.4 KiB (0%)
Title : Spanish-FORCED-PGS
Language : Spanish
Default : No
Forced : No
Original source medium : Blu-ray

Menu
00:00:00.000 : en:Chapter 01
00:01:36.513 : en:Chapter 02
00:08:29.383 : en:Chapter 03
00:15:38.479 : en:Chapter 04
00:21:26.285 : en:Chapter 05
00:27:13.798 : en:Chapter 06
00:32:00.919 : en:Chapter 07
00:36:38.654 : en:Chapter 08
00:43:05.207 : en:Chapter 09
00:53:40.258 : en:Chapter 10
01:00:52.315 : en:Chapter 11
01:12:25.507 : en:Chapter 12
01:18:46.138 : en:Chapter 13
01:25:06.726 : en:Chapter 14
01:37:26.298 : en:Chapter 15
01:44:56.081 : en:Chapter 16
01:50:36.171 : en:Chapter 17

本帖子中包含更多资源

您需要 登录 才可以下载或查看,没有帐号?立即注册

x
回复

使用道具 举报

0

主题

99

帖子

853

积分

高级会员

Rank: 4

积分
853
发表于 2020-9-14 10:50:47 | 显示全部楼层
何谓特定用户?
回复

使用道具 举报

0

主题

99

帖子

853

积分

高级会员

Rank: 4

积分
853
发表于 2020-9-14 10:51:38 | 显示全部楼层
如何升级为特定用户
回复

使用道具 举报

0

主题

619

帖子

4981

积分

VIP永久

Rank: 12Rank: 12Rank: 12

积分
4981
发表于 2020-9-14 11:18:25 | 显示全部楼层

感谢楼主分享!!!
回复

使用道具 举报

0

主题

361

帖子

1978

积分

金牌会员

Rank: 6Rank: 6

积分
1978
发表于 2020-9-14 14:06:13 | 显示全部楼层
特定用户是什么?
回复

使用道具 举报

0

主题

435

帖子

5491

积分

论坛元老

Rank: 8Rank: 8

积分
5491
发表于 4 天前 | 显示全部楼层
感谢楼主分享!!!
回复

使用道具 举报

您需要登录后才可以回帖 登录 | 立即注册

本版积分规则

QQ|Archiver|手机版|小黑屋|原盘天堂 盘盘多 点击这里给我发消息

GMT+8, 2020-9-24 06:03 , Processed in 0.061474 second(s), 24 queries .

Powered by Discuz! X3.4

Copyright © 2001-2020, Tencent Cloud.

快速回复 返回顶部 返回列表