请选择 进入手机版 | 继续访问电脑版
本站原来Q群已取消,请原Q群会员和其他未入群会员加原盘天堂新官方QQ群713428235【盘盘多】,验证信息填写您在论坛的会员名,不填会员名的无法入群哈,进群后修改您的群名片名字为您在论坛的会员名,请务必修改,否则群成员多了不知道您是哪个会员,无法为您发送高速链接!

原盘天堂

 找回密码
 立即注册
查看: 45|回复: 4

4k蓝光原盘bdmv 守墓屋 英语原版 the.house.by.the.cemetery.1981.2160p.bluray.hevc.truehd.7.1.atmos[60.74 GB]

[复制链接]

5407

主题

5920

帖子

129万

积分

管理员

Rank: 18Rank: 18Rank: 18Rank: 18Rank: 18

积分
1291336
发表于 2020-9-13 11:15:08 | 显示全部楼层 |阅读模式








守墓屋 The House By The Cemetery (1981)

导演: 卢西奥·弗尔兹
编剧: Elisa Briganti / 卢西奥·弗尔兹
主演: 卡特里娜 马科尔 / 保罗马 尔科夫 / 阿尼娅·皮艾洛丽
类型: 恐怖
制片国家/地区: 意大利
语言: 意大利语
上映日期: 1981-08-14
片长: 87 分钟 / USA: 82 分钟(2002 DVD release) / UK: 85 分钟(cut)
又名: Quella villa accanto al cimitero / Zombie Hell House / 夜半鬼追人 / 墓边凶宅 / 墓地裏の家 / 地狱三部曲之守墓屋

豆瓣评分
6.3
383人评价
5星9.3%
4星20.4%
3星49.5%
2星16.3%
1星4.5%

剧情简介 · · · · · ·
  波士顿郊外的新英格兰,一幢古老的房子废弃破败。传说很久之前,一位名叫弗莱德斯坦的科学家住在这里,他曾抓狂杀害自己的妻女,从此变成了一个吃人肉为生的恐怖僵尸,存活已有上百年。虽然这些传说有些荒诞无稽,但这幢房子却是散发着不祥的气息,诸多居住于此的人最终都遭遇了不幸。
  因工作的缘故,小男孩鲍伯(Giovanni Frezzi 饰)随父母搬到弗莱德斯坦博士的房子里。此搬入那天开始,怪事及恐怖事件便接连发生。而鲍伯的父亲(Paolo Malco 饰)在研究疯狂科学家的生平时,也逐渐发现了其中的秘密……

DISC INFO:

Disc Title:     The.House.by.the.Cemetery.1981.2160p.BluRay.HEVC.TrueHD.7.1.Atmos-CrsS
Disc Size:      65,222,525,966 bytes
Protection:     AACS2
Extras:         Ultra HD
BDInfo:         0.7.5.9 (compatible layout created by DVDFab 11.1.0.6)

PLAYLIST REPORT:

Name:                   00000.MPLS  
Length:                 1:26:22.218 (h:m:s.ms)
Size:                   58,156,695,552 bytes
Total Bitrate:          89.78 Mbps

(*) Indicates included stream hidden by this playlist.

VIDEO:

Codec                   Bitrate             Description   
-----                   -------             -----------   
MPEG-H HEVC Video       71996 kbps          2160p / 23.976 fps / 16:9 / Main 10 @ Level 5.1 @ High / 4:2:0 / 10 bits / 1000nits / HDR10 / BT.2020
* MPEG-H HEVC Video     4731 kbps (6.17%)   1080p / 23.976 fps / 16:9 / Main 10 @ Level 5.1 @ High / 4:2:0 / 10 bits / 1000nits / Dolby Vision FEL / BT.2020

AUDIO:

Codec                           Language        Bitrate         Description   
-----                           --------        -------         -----------   
Dolby TrueHD/Atmos Audio        English         3827 kbps       7.1+11 objects / 48 kHz / 3187 kbps / 16-bit (AC3 Core: 5.1-EX / 48 kHz / 640 kbps)
DTS-HD Master Audio             English         1697 kbps       5.1 / 48 kHz / 1697 kbps / 16-bit (DTS Core: 5.1 / 48 kHz / 1509 kbps / 16-bit)
DTS-HD Master Audio             English         861 kbps        1.0 / 48 kHz / 861 kbps / 16-bit (DTS Core: 1.0 / 48 kHz / 768 kbps / 16-bit)
DTS-HD Master Audio             Italian         1045 kbps       1.0 / 48 kHz / 1045 kbps / 24-bit (DTS Core: 1.0 / 48 kHz / 768 kbps / 24-bit)
Dolby Digital Audio             English         192 kbps        2.0 / 48 kHz / 192 kbps

Video #1
ID : 1
ID in the original source medium : 4113 (0x1011)
Format : HEVC
Format/Info : High Efficiency Video Coding
Format profile : Main [email protected]@High
HDR format : SMPTE ST 2086, HDR10 compatible
Codec ID : V_MPEGH/ISO/HEVC
Duration : 1 h 26 min
Bit rate : 72.0 Mb/s
Width : 3 840 pixels
Height : 2 160 pixels
Display aspect ratio : 16:9
Frame rate mode : Constant
Frame rate : 23.976 (24000/1001) FPS
Color space : YUV
Chroma subsampling : 4:2:0 (Type 2)
Bit depth : 10 bits
Bits/(Pixel*Frame) : 0.362
Stream size : 43.4 GiB (84%)
Title : The.House.by.the.Cemetery.1981.2160p.BluRay.REMUX.HEVC.DTS-HD.MA.TrueHD.7.1.Atmos-FGT
Language : English
Default : Yes
Forced : No
Color range : Limited
Color primaries : BT.2020
Transfer characteristics : PQ
Matrix coefficients : BT.2020 non-constant
Mastering display color primaries : BT.2020
Mastering display luminance : min: 0.0001 cd/m2, max: 1000 cd/m2
Original source medium : Blu-ray


Video #2
ID : 2
ID in the original source medium : 4117 (0x1015)
Format : HEVC
Format/Info : High Efficiency Video Coding
Format profile : Main [email protected]@High
HDR format : SMPTE ST 2086, HDR10 compatible
Codec ID : V_MPEGH/ISO/HEVC
Duration : 1 h 26 min
Bit rate : 4 730 kb/s
Width : 1 920 pixels
Height : 1 080 pixels
Display aspect ratio : 16:9
Frame rate mode : Constant
Frame rate : 23.976 (24000/1001) FPS
Color space : YUV
Chroma subsampling : 4:2:0 (Type 2)
Bit depth : 10 bits
Bits/(Pixel*Frame) : 0.095
Stream size : 2.85 GiB (5%)
Title : The.House.by.the.Cemetery.1981.2160p.BluRay.REMUX.HEVC.DTS-HD.MA.TrueHD.7.1.Atmos-FGT
Language : English
Default : No
Forced : No
Color range : Limited
Color primaries : BT.2020
Transfer characteristics : PQ
Matrix coefficients : BT.2020 non-constant
Mastering display color primaries : BT.2020
Mastering display luminance : min: 0.0001 cd/m2, max: 1000 cd/m2
Original source medium : Blu-ray

Audio #1
ID : 3
ID in the original source medium : 4352 (0x1100)
Format : MLP FBA 16-ch
Format/Info : Meridian Lossless Packing FBA with 16-channel presentation
Commercial name : Dolby TrueHD with Dolby Atmos
Codec ID : A_TRUEHD
Duration : 1 h 26 min
Bit rate mode : Variable
Bit rate : 3 187 kb/s
Maximum bit rate : 4 701 kb/s
Channel(s) : 8 channels
Channel layout : L R C LFE Ls Rs Lb Rb
Sampling rate : 48.0 kHz
Frame rate : 1 200.000 FPS (40 SPF)
Compression mode : Lossless
Stream size : 1.92 GiB (4%)
Title : The.House.by.the.Cemetery.1981.2160p.BluRay.REMUX.HEVC.DTS-HD.MA.TrueHD.7.1.Atmos-FGT
Language : English
Default : Yes
Forced : No
Original source medium : Blu-ray
Number of dynamic objects : 11
Bed channel count : 1 channel
Bed channel configuration : LFE

Audio #2
ID : 4
Format : DTS XLL
Format/Info : Digital Theater Systems
Commercial name : DTS-HD Master Audio
Codec ID : A_DTS
Duration : 1 h 26 min
Bit rate mode : Variable
Bit rate : 3 246 kb/s
Channel(s) : 8 channels
Channel layout : C L R LFE Lb Rb Lss Rss
Sampling rate : 48.0 kHz
Frame rate : 93.750 FPS (512 SPF)
Bit depth : 24 bits
Compression mode : Lossless
Stream size : 1.96 GiB (4%)
Title : The.House.by.the.Cemetery.1981.2160p.BluRay.REMUX.HEVC.DTS-HD.MA.TrueHD.7.1.Atmos-FGT
Language : English
Default : No
Forced : No

Audio #3
ID : 5
ID in the original source medium : 4352 (0x1100)
Format : AC-3
Format/Info : Audio Coding 3
Commercial name : Dolby Digital
Codec ID : A_AC3
Duration : 1 h 26 min
Bit rate mode : Constant
Bit rate : 640 kb/s
Channel(s) : 6 channels
Channel layout : L R C LFE Ls Rs
Sampling rate : 48.0 kHz
Frame rate : 31.250 FPS (1536 SPF)
Compression mode : Lossy
Stream size : 395 MiB (1%)
Title : The.House.by.the.Cemetery.1981.2160p.BluRay.REMUX.HEVC.DTS-HD.MA.TrueHD.7.1.Atmos-FGT
Language : English
Service kind : Complete Main
Default : No
Forced : No
Original source medium : Blu-ray

Audio #4
ID : 6
ID in the original source medium : 4354 (0x1102)
Format : DTS XLL
Format/Info : Digital Theater Systems
Commercial name : DTS-HD Master Audio
Codec ID : A_DTS
Duration : 1 h 26 min
Bit rate mode : Variable
Bit rate : 861 kb/s
Channel(s) : 1 channel
Channel layout : C
Sampling rate : 48.0 kHz
Frame rate : 93.750 FPS (512 SPF)
Bit depth : 16 bits
Compression mode : Lossless
Stream size : 532 MiB (1%)
Title : The.House.by.the.Cemetery.1981.2160p.BluRay.REMUX.HEVC.DTS-HD.MA.TrueHD.7.1.Atmos-FGT
Language : English
Default : No
Forced : No
Original source medium : Blu-ray

Audio #5
ID : 7
ID in the original source medium : 4355 (0x1103)
Format : DTS XLL
Format/Info : Digital Theater Systems
Commercial name : DTS-HD Master Audio
Codec ID : A_DTS
Duration : 1 h 26 min
Bit rate mode : Variable
Bit rate : 1 045 kb/s
Channel(s) : 1 channel
Channel layout : C
Sampling rate : 48.0 kHz
Frame rate : 93.750 FPS (512 SPF)
Bit depth : 24 bits
Compression mode : Lossless
Stream size : 645 MiB (1%)
Title : The.House.by.the.Cemetery.1981.2160p.BluRay.REMUX.HEVC.DTS-HD.MA.TrueHD.7.1.Atmos-FGT
Language : Italian
Default : No
Forced : No
Original source medium : Blu-ray

Audio #6
ID : 8
ID in the original source medium : 4356 (0x1104)
Format : AC-3
Format/Info : Audio Coding 3
Commercial name : Dolby Digital
Codec ID : A_AC3
Duration : 1 h 26 min
Bit rate mode : Constant
Bit rate : 192 kb/s
Channel(s) : 2 channels
Channel layout : L R
Sampling rate : 48.0 kHz
Frame rate : 31.250 FPS (1536 SPF)
Compression mode : Lossy
Stream size : 119 MiB (0%)
Title : The.House.by.the.Cemetery.1981.2160p.BluRay.REMUX.HEVC.DTS-HD.MA.TrueHD.7.1.Atmos-FGT
Language : English
Service kind : Complete Main
Default : No
Forced : No
Original source medium : Blu-ray

Text #1
ID : 9
Format : UTF-8
Codec ID : S_TEXT/UTF8
Codec ID/Info : UTF-8 Plain Text
Duration : 1 h 23 min
Bit rate : 27 b/s
Count of elements : 592
Stream size : 16.7 KiB (0%)
Title : English-SRT
Language : English
Default : Yes
Forced : No

Text #2
ID : 10
Format : UTF-8
Codec ID : S_TEXT/UTF8
Codec ID/Info : UTF-8 Plain Text
Duration : 1 h 22 min
Bit rate : 24 b/s
Count of elements : 592
Stream size : 14.8 KiB (0%)
Title : English-for-Italian-SRT
Language : English
Default : No
Forced : No

Text #3
ID : 11
ID in the original source medium : 4768 (0x12A0)
Format : PGS
Muxing mode : zlib
Codec ID : S_HDMV/PGS
Codec ID/Info : Picture based subtitle format used on BDs/HD-DVDs
Duration : 1 h 23 min
Bit rate : 41.7 kb/s
Count of elements : 1816
Stream size : 25.0 MiB (0%)
Title : English-PGS
Language : English
Default : No
Forced : No
Original source medium : Blu-ray

Text #4
ID : 12
ID in the original source medium : 4769 (0x12A1)
Format : PGS
Muxing mode : zlib
Codec ID : S_HDMV/PGS
Codec ID/Info : Picture based subtitle format used on BDs/HD-DVDs
Duration : 1 h 24 min
Bit rate : 30.5 kb/s
Count of elements : 1362
Stream size : 18.4 MiB (0%)
Title : French-PGS
Language : French
Default : No
Forced : No
Original source medium : Blu-ray

Text #5
ID : 13
ID in the original source medium : 4770 (0x12A2)
Format : PGS
Muxing mode : zlib
Codec ID : S_HDMV/PGS
Codec ID/Info : Picture based subtitle format used on BDs/HD-DVDs
Duration : 1 h 24 min
Bit rate : 27.3 kb/s
Count of elements : 1352
Stream size : 16.5 MiB (0%)
Title : Spanish-PGS
Language : Spanish
Default : No
Forced : No
Original source medium : Blu-ray

Text #6
ID : 14
ID in the original source medium : 4771 (0x12A3)
Format : PGS
Muxing mode : zlib
Codec ID : S_HDMV/PGS
Codec ID/Info : Picture based subtitle format used on BDs/HD-DVDs
Duration : 1 h 22 min
Bit rate : 16.9 kb/s
Count of elements : 1192
Stream size : 10.0 MiB (0%)
Title : English-for-Italian-PGS
Language : English
Default : No
Forced : No
Original source medium : Blu-ray

Menu
00:00:00.000 : en:Chapter 01
00:02:59.929 : en:Chapter 02
00:04:14.254 : en:Chapter 03
00:07:47.383 : en:Chapter 04
00:11:25.267 : en:Chapter 05
00:16:11.971 : en:Chapter 06
00:21:43.760 : en:Chapter 07
00:25:45.168 : en:Chapter 08
00:30:24.364 : en:Chapter 09
00:35:25.957 : en:Chapter 10
00:42:54.572 : en:Chapter 11
00:50:12.718 : en:Chapter 12
00:58:35.345 : en:Chapter 13
01:04:08.845 : en:Chapter 14
01:10:13.209 : en:Chapter 15
01:15:52.548 : en:Chapter 16
01:22:06.254 : en:Chapter 17
01:25:05.100 : en:Chapter 18

本帖子中包含更多资源

您需要 登录 才可以下载或查看,没有帐号?立即注册

x
回复

使用道具 举报

0

主题

619

帖子

4981

积分

VIP永久

Rank: 12Rank: 12Rank: 12

积分
4981
发表于 2020-9-13 17:40:10 | 显示全部楼层
感谢楼主分享!!!
回复

使用道具 举报

0

主题

361

帖子

1978

积分

金牌会员

Rank: 6Rank: 6

积分
1978
发表于 2020-9-13 19:04:21 | 显示全部楼层
感谢楼主分享
回复

使用道具 举报

0

主题

361

帖子

1978

积分

金牌会员

Rank: 6Rank: 6

积分
1978
发表于 2020-9-14 14:24:44 | 显示全部楼层
特定用户是什么?
回复

使用道具 举报

0

主题

139

帖子

1076

积分

金牌会员

Rank: 6Rank: 6

积分
1076
发表于 3 天前 | 显示全部楼层
楼主发贴辛苦了,谢谢楼主分享!
回复

使用道具 举报

您需要登录后才可以回帖 登录 | 立即注册

本版积分规则

QQ|Archiver|手机版|小黑屋|原盘天堂 盘盘多 点击这里给我发消息

GMT+8, 2020-9-24 05:48 , Processed in 0.069114 second(s), 24 queries .

Powered by Discuz! X3.4

Copyright © 2001-2020, Tencent Cloud.

快速回复 返回顶部 返回列表