请选择 进入手机版 | 继续访问电脑版
本站原来Q群已取消,请原Q群会员和其他未入群会员加原盘天堂新官方QQ群713428235【盘盘多】,验证信息填写您在论坛的会员名,不填会员名的无法入群哈,进群后修改您的群名片名字为您在论坛的会员名,请务必修改,否则群成员多了不知道您是哪个会员,无法为您发送高速链接!

原盘天堂

 找回密码
 立即注册
查看: 47|回复: 3

4k蓝光原盘bdmv 惊魂记 英语原版 psycho.1960.uncut.2160p.bluray.hevc.dts-x.7.1[90.58 GB]

[复制链接]

5407

主题

5920

帖子

129万

积分

管理员

Rank: 18Rank: 18Rank: 18Rank: 18Rank: 18

积分
1291336
发表于 2020-9-13 10:12:31 | 显示全部楼层 |阅读模式








惊魂记 Psycho (1960)

导演: 阿尔弗雷德·希区柯克
编剧: 约瑟夫·斯蒂凡诺 / 罗伯特·布洛克
主演: 安东尼·博金斯 / 维拉·迈尔斯 / 约翰·加文 / 珍妮特·利 / 马丁·鲍尔萨姆 / 更多...
类型: 悬疑 / 惊悚 / 恐怖
制片国家/地区: 美国
语言: 英语
上映日期: 1960-06-16(纽约首映) / 1960-09-08(美国)
片长: 109分钟
又名: 精神病患者 / 触目惊心(港) / 精神病人

豆瓣评分
9.0
178404人评价
5星56.7%
4星36.3%
3星6.5%
2星0.4%
1星0.2%
好于 99% 悬疑片
好于 99% 惊悚片

剧情简介 · · · · · ·
  年轻的马里恩·克兰(珍妮特·利 饰)在Phoenix工作,深受老板洛厄里(沃恩·泰勒 饰)信任。男友萨姆·卢米斯(约翰·加文 饰)在Fairvale经营一家五金店,因要替亡父还债又要支付前妻赡养费而无力再婚,只能借出差的机会偶尔来与马里恩幽会。马里恩对此感到不满,于是在周五下午趁机携四万美元公款驾车潜逃。可是马里恩的潜逃之路并不顺利:先是在出城的时候被洛厄里目击,周六一大早又被警察怀疑。花了七百美元以旧车换新车之后,马里恩继续忐忑地行驶。入夜后,天降大雨,视线模糊,无法行驶,马里恩只得将车泊入路边的贝茨汽车旅馆投宿。老板诺尔曼(安东尼·珀金斯 饰)十分友善,试图邀请马里恩到家里共进晚餐,可惜被凶恶的母亲粗暴阻止,只得将晚餐端至旅馆客厅。马里恩在客厅一边进餐一边与诺尔曼交谈,终于决定周日返回Phoenix。用餐完毕,马里恩回房沐浴。这时,一个老妇的身影突然出现在卫生间……

惊魂记 Psycho 获奖情况
第33届奥斯卡金像奖  (1961)
最佳导演(提名) 阿尔弗雷德·希区柯克
最佳女配角(提名) 珍妮特·利
黑白片最佳摄影(提名) 约翰·L·拉塞尔
黑白片最佳艺术指导和布景(提名) Joseph Hurley / 乔治·米洛 / Robert Clatworthy
第18届金球奖  (1961)
电影类 最佳女配角 珍妮特·利

DISC INFO:

Disc Title:     Psycho.1960.UNCUT.2160p.BluRay.HEVC.DTS-X.7.1-LsNM
Disc Size:      97,261,774,656 bytes
Protection:     AACS2
Extras:         Ultra HD, BD-Java
BDInfo:         0.7.5.9 (compatible layout created by DVDFab 11.1.0.6)

PLAYLIST REPORT:

Name:                   00801.MPLS  
Length:                 1:49:04.496 (h:m:s.ms)
Size:                   59,893,776,384 bytes
Total Bitrate:          73.21 Mbps

(*) Indicates included stream hidden by this playlist.

VIDEO:

Codec                   Bitrate             Description   
-----                   -------             -----------   
MPEG-H HEVC Video       63439 kbps          2160p / 23.976 fps / 16:9 / Main 10 @ Level 5.1 @ High / 4:2:0 / 10 bits / 1000nits / HDR10 / BT.2020

AUDIO:

Codec                           Language        Bitrate         Description   
-----                           --------        -------         -----------   
DTS:X Master Audio              English         3376 kbps       7.1-X / 48 kHz / 3376 kbps / 24-bit (DTS Core: 5.1 / 48 kHz / 1509 kbps / 24-bit)
DTS Audio                       English         448 kbps        2.0 / 48 kHz / 448 kbps / 24-bit
DTS Audio                       Spanish         448 kbps        2.0 / 48 kHz / 448 kbps / 24-bit
DTS Audio                       French          448 kbps        2.0 / 48 kHz / 448 kbps / 24-bit
Dolby Digital Audio             English         192 kbps        2.0 / 48 kHz / 192 kbps
* DTS Audio                     English         384 kbps        2.0 / 48 kHz / 384 kbps / 24-bit
* DTS Audio                     French          384 kbps        2.0 / 48 kHz / 384 kbps / 24-bit
* Dolby Digital Audio           English         192 kbps        2.0 / 48 kHz / 192 kbps

SUBTITLES:

Codec                           Language        Bitrate         Description   
-----                           --------        -------         -----------   
Presentation Graphics           English         35.402 kbps                    
Presentation Graphics           Spanish         30.822 kbps                    
Presentation Graphics           French          32.676 kbps                    
Presentation Graphics           Spanish         0.16 kbps                     
Presentation Graphics           French          0.173 kbps   


Video
ID : 1
ID in the original source medium : 4113 (0x1011)
Format : HEVC
Format/Info : High Efficiency Video Coding
Format profile : Main [email protected]@High
HDR format : SMPTE ST 2086, HDR10 compatible
Codec ID : V_MPEGH/ISO/HEVC
Duration : 1 h 49 min
Bit rate : 63.4 Mb/s
Width : 3 840 pixels
Height : 2 160 pixels
Display aspect ratio : 16:9
Frame rate mode : Constant
Frame rate : 23.976 (24000/1001) FPS
Color space : YUV
Chroma subsampling : 4:2:0 (Type 2)
Bit depth : 10 bits
Bits/(Pixel*Frame) : 0.319
Stream size : 48.3 GiB (93%)
Title : Psycho.1960.UNCUT.2160p.BluRay.REMUX.HEVC.DTS-X.7.1-FGT
Writing library : ATEME Titan File 3.9.6 (4.9.6.2)
Language : English
Default : No
Forced : No
Color range : Limited
Color primaries : BT.2020
Transfer characteristics : PQ
Matrix coefficients : BT.2020 non-constant
Mastering display color primaries : Display P3
Mastering display luminance : min: 0.0050 cd/m2, max: 1000 cd/m2
Maximum Content Light Level : 1000 cd/m2
Maximum Frame-Average Light Level : 76 cd/m2
Original source medium : Blu-ray

Audio #1
ID : 2
ID in the original source medium : 4352 (0x1100)
Format : DTS XLL X
Format/Info : Digital Theater Systems
Commercial name : DTS-HD Master Audio
Codec ID : A_DTS
Duration : 1 h 49 min
Bit rate mode : Variable
Bit rate : 3 376 kb/s
Channel(s) : 8 channels
Channel(s)_Original : Object Based
ChannelLayout_Original : Object Based
Sampling rate : 48.0 kHz
Frame rate : 93.750 FPS (512 SPF)
Bit depth : 24 bits
Stream size : 2.57 GiB (5%)
Title : Psycho.1960.UNCUT.2160p.BluRay.REMUX.HEVC.DTS-X.7.1-FGT
Language : English
Default : Yes
Forced : No
Original source medium : Blu-ray

Audio #2
ID : 3
ID in the original source medium : 4354 (0x1102)
Format : DTS
Format/Info : Digital Theater Systems
Codec ID : A_DTS
Duration : 1 h 49 min
Bit rate mode : Constant
Bit rate : 447 kb/s
Channel(s) : 2 channels
Channel layout : L R
Sampling rate : 48.0 kHz
Frame rate : 93.750 FPS (512 SPF)
Bit depth : 24 bits
Compression mode : Lossy
Stream size : 349 MiB (1%)
Title : Psycho.1960.UNCUT.2160p.BluRay.REMUX.HEVC.DTS-X.7.1-FGT
Language : English
Default : No
Forced : No
Original source medium : Blu-ray

Audio #3
ID : 4
ID in the original source medium : 4355 (0x1103)
Format : DTS
Format/Info : Digital Theater Systems
Codec ID : A_DTS
Duration : 1 h 49 min
Bit rate mode : Constant
Bit rate : 447 kb/s
Channel(s) : 2 channels
Channel layout : L R
Sampling rate : 48.0 kHz
Frame rate : 93.750 FPS (512 SPF)
Bit depth : 24 bits
Compression mode : Lossy
Stream size : 349 MiB (1%)
Title : Psycho.1960.UNCUT.2160p.BluRay.REMUX.HEVC.DTS-X.7.1-FGT
Language : Spanish
Default : No
Forced : No
Original source medium : Blu-ray

Audio #4
ID : 5
ID in the original source medium : 4357 (0x1105)
Format : DTS
Format/Info : Digital Theater Systems
Codec ID : A_DTS
Duration : 1 h 49 min
Bit rate mode : Constant
Bit rate : 447 kb/s
Channel(s) : 2 channels
Channel layout : L R
Sampling rate : 48.0 kHz
Frame rate : 93.750 FPS (512 SPF)
Bit depth : 24 bits
Compression mode : Lossy
Stream size : 349 MiB (1%)
Title : Psycho.1960.UNCUT.2160p.BluRay.REMUX.HEVC.DTS-X.7.1-FGT
Language : French
Default : No
Forced : No
Original source medium : Blu-ray

Audio #5
ID : 6
ID in the original source medium : 4359 (0x1107)
Format : AC-3
Format/Info : Audio Coding 3
Commercial name : Dolby Digital
Codec ID : A_AC3
Duration : 1 h 49 min
Bit rate mode : Constant
Bit rate : 192 kb/s
Channel(s) : 2 channels
Channel layout : L R
Sampling rate : 48.0 kHz
Frame rate : 31.250 FPS (1536 SPF)
Compression mode : Lossy
Stream size : 150 MiB (0%)
Title : Psycho.1960.UNCUT.2160p.BluRay.REMUX.HEVC.DTS-X.7.1-FGT
Language : English
Service kind : Complete Main
Default : No
Forced : No
Original source medium : Blu-ray

Text #1
ID : 7
Format : UTF-8
Codec ID : S_TEXT/UTF8
Codec ID/Info : UTF-8 Plain Text
Duration : 1 h 45 min
Bit rate : 54 b/s
Count of elements : 1132
Stream size : 42.2 KiB (0%)
Title : English-SRT
Language : English
Default : Yes
Forced : No

Text #2
ID : 8
ID in the original source medium : 4768 (0x12A0)
Format : PGS
Muxing mode : zlib
Codec ID : S_HDMV/PGS
Codec ID/Info : Picture based subtitle format used on BDs/HD-DVDs
Duration : 1 h 45 min
Bit rate : 36.5 kb/s
Count of elements : 2428
Stream size : 27.6 MiB (0%)
Title : English-PGS
Language : English
Default : No
Forced : No
Original source medium : Blu-ray

Text #3
ID : 9
ID in the original source medium : 4769 (0x12A1)
Format : PGS
Muxing mode : zlib
Codec ID : S_HDMV/PGS
Codec ID/Info : Picture based subtitle format used on BDs/HD-DVDs
Duration : 1 h 46 min
Bit rate : 31.6 kb/s
Count of elements : 2050
Stream size : 24.0 MiB (0%)
Title : Spanish-PGS
Language : Spanish
Default : No
Forced : No
Original source medium : Blu-ray

Text #4
ID : 10
ID in the original source medium : 4770 (0x12A2)
Format : PGS
Muxing mode : zlib
Codec ID : S_HDMV/PGS
Codec ID/Info : Picture based subtitle format used on BDs/HD-DVDs
Duration : 1 h 46 min
Bit rate : 33.5 kb/s
Count of elements : 2092
Stream size : 25.5 MiB (0%)
Title : French-PGS
Language : French
Default : No
Forced : No
Original source medium : Blu-ray

Text #5
ID : 11
ID in the original source medium : 4771 (0x12A3)
Format : PGS
Muxing mode : zlib
Codec ID : S_HDMV/PGS
Codec ID/Info : Picture based subtitle format used on BDs/HD-DVDs
Duration : 1 h 46 min
Bit rate : 164 b/s
Count of elements : 28
Stream size : 128 KiB (0%)
Title : Spanish-FORCED-PGS
Language : Spanish
Default : No
Forced : No
Original source medium : Blu-ray

Text #6
ID : 12
ID in the original source medium : 4772 (0x12A4)
Format : PGS
Muxing mode : zlib
Codec ID : S_HDMV/PGS
Codec ID/Info : Picture based subtitle format used on BDs/HD-DVDs
Duration : 1 h 46 min
Bit rate : 177 b/s
Count of elements : 26
Stream size : 138 KiB (0%)
Title : French-FORCED-PGS
Language : French
Default : No
Forced : No
Original source medium : Blu-ray

Menu
00:00:00.000 : en:Chapter 01
00:02:20.306 : en:Chapter 02
00:07:00.044 : en:Chapter 03
00:11:06.624 : en:Chapter 04
00:14:00.506 : en:Chapter 05
00:17:54.156 : en:Chapter 06
00:26:32.674 : en:Chapter 07
00:34:50.922 : en:Chapter 08
00:38:35.021 : en:Chapter 09
00:46:43.592 : en:Chapter 10
00:49:36.932 : en:Chapter 11
00:58:51.486 : en:Chapter 12
01:00:25.872 : en:Chapter 13
01:04:10.888 : en:Chapter 14
01:06:41.330 : en:Chapter 15
01:12:35.267 : en:Chapter 16
01:16:41.972 : en:Chapter 17
01:17:52.834 : en:Chapter 18
01:20:29.741 : en:Chapter 19
01:23:48.314 : en:Chapter 20
01:27:05.637 : en:Chapter 21
01:32:18.908 : en:Chapter 22
01:35:21.882 : en:Chapter 23
01:41:03.515 : en:Chapter 24
01:42:08.997 : en:Chapter 25
01:47:29.359 : en:Chapter 26

本帖子中包含更多资源

您需要 登录 才可以下载或查看,没有帐号?立即注册

x
回复

使用道具 举报

0

主题

619

帖子

4981

积分

VIP永久

Rank: 12Rank: 12Rank: 12

积分
4981
发表于 2020-9-13 10:43:11 | 显示全部楼层
感谢楼主分享!!!
回复

使用道具 举报

0

主题

139

帖子

1076

积分

金牌会员

Rank: 6Rank: 6

积分
1076
发表于 2020-9-13 11:42:37 | 显示全部楼层
楼主真是给力啊,多谢
回复

使用道具 举报

0

主题

114

帖子

1028

积分

金牌会员

Rank: 6Rank: 6

积分
1028
发表于 2020-9-14 17:07:46 | 显示全部楼层
感谢楼主分享!
回复

使用道具 举报

您需要登录后才可以回帖 登录 | 立即注册

本版积分规则

QQ|Archiver|手机版|小黑屋|原盘天堂 盘盘多 点击这里给我发消息

GMT+8, 2020-9-24 07:07 , Processed in 0.062717 second(s), 24 queries .

Powered by Discuz! X3.4

Copyright © 2001-2020, Tencent Cloud.

快速回复 返回顶部 返回列表