请选择 进入手机版 | 继续访问电脑版
本站原来Q群已取消,请原Q群会员和其他未入群会员加原盘天堂新官方QQ群713428235【盘盘多】,验证信息填写您在论坛的会员名,不填会员名的无法入群哈,进群后修改您的群名片名字为您在论坛的会员名,请务必修改,否则群成员多了不知道您是哪个会员,无法为您发送高速链接!

原盘天堂

 找回密码
 立即注册
查看: 48|回复: 3

2d蓝光原盘bdmv 不可抗拒 英语原版 irresistible.2020.1080p.bluray.avc.dts-hd.ma.5.1[37.12 GB]

[复制链接]

5407

主题

5920

帖子

129万

积分

管理员

Rank: 18Rank: 18Rank: 18Rank: 18Rank: 18

积分
1291336
发表于 2020-9-9 17:53:34 | 显示全部楼层 |阅读模式








不可抗拒 Irresistible (2020)

演: 乔恩·斯图尔特
编剧: 乔恩·斯图尔特
主演: 史蒂夫·卡瑞尔 / 罗丝·伯恩 / 麦肯兹·戴维斯 / 娜塔莎·雷昂 / 克里斯·库珀 / 更多...
类型: 剧情 / 喜剧
制片国家/地区: 美国
语言: 英语
上映日期: 2020-06-26(美国)
片长: 102分钟
又名: 无法抗拒

豆瓣评分
7.4
2154人评价
5星13.6%
4星46.4%
3星35.5%
2星3.9%
1星0.7%
好于 65% 喜剧片
好于 43% 剧情片

剧情简介 · · · · · ·
  故事讲述了一位老练的民主党战略家(卡瑞尔饰)在威斯康星州的一座右翼小镇,帮助一位退休的老将竞选市长。

DISC INFO:

Disc Title:     Irresistible.2020.1080p.BluRay.AVC.DTS-HD.MA.5.1-FGT
Disc Size:      39,858,282,502 bytes
Protection:     AACS
Extras:         BD-Java
BDInfo:         0.7.5.9 (compatible layout created by DVDFab 11.1.0.4)

PLAYLIST REPORT:

Name:                   00612.MPLS  
Length:                 1:41:37.508 (h:m:s.ms)
Size:                   30,275,874,816 bytes
Total Bitrate:          39.72 Mbps

VIDEO:

Codec                   Bitrate             Description   
-----                   -------             -----------   
MPEG-4 AVC Video        33797 kbps          1080p / 23.976 fps / 16:9 / High Profile 4.1

AUDIO:

Codec                           Language        Bitrate         Description   
-----                           --------        -------         -----------   
DTS-HD Master Audio             English         3558 kbps       5.1 / 48 kHz / 3558 kbps / 24-bit (DTS Core: 5.1 / 48 kHz / 1509 kbps / 24-bit)
Dolby Digital Audio             English         192 kbps        2.0 / 48 kHz / 192 kbps

SUBTITLES:

Codec                           Language        Bitrate         Description   
-----                           --------        -------         -----------   
Presentation Graphics           English         62.036 kbps                    
Presentation Graphics           Spanish         51.334 kbps                    
Presentation Graphics           French          60.651 kbps   

Video
ID : 1
ID in the original source medium : 4113 (0x1011)
Format : AVC
Format/Info : Advanced Video Codec
Format profile : [email protected]
Format settings : CABAC / 2 Ref Frames
Format settings, CABAC : Yes
Format settings, Reference frames : 2 frames
Format settings, GOP : M=1, N=10
Codec ID : V_MPEG4/ISO/AVC
Duration : 1 h 41 min
Bit rate mode : Variable
Bit rate : 33.8 Mb/s
Width : 1 920 pixels
Height : 1 080 pixels
Display aspect ratio : 16:9
Frame rate mode : Constant
Frame rate : 23.976 (24000/1001) FPS
Color space : YUV
Chroma subsampling : 4:2:0
Bit depth : 8 bits
Scan type : Progressive
Bits/(Pixel*Frame) : 0.680
Stream size : 24.0 GiB (90%)
Title : Irresistible.2020.1080p.BluRay.REMUX.AVC.DTS-HD.MA.5.1-FGT
Language : English
Default : No
Forced : No
Original source medium : Blu-ray

Audio #1
ID : 2
ID in the original source medium : 4352 (0x1100)
Format : DTS XLL
Format/Info : Digital Theater Systems
Commercial name : DTS-HD Master Audio
Codec ID : A_DTS
Duration : 1 h 41 min
Bit rate mode : Variable
Bit rate : 3 558 kb/s
Channel(s) : 6 channels
Channel layout : C L R Ls Rs LFE
Sampling rate : 48.0 kHz
Frame rate : 93.750 FPS (512 SPF)
Bit depth : 24 bits
Compression mode : Lossless
Stream size : 2.53 GiB (9%)
Title : Irresistible.2020.1080p.BluRay.REMUX.AVC.DTS-HD.MA.5.1-FGT
Language : English
Default : Yes
Forced : No
Original source medium : Blu-ray

Audio #2
ID : 3
ID in the original source medium : 4353 (0x1101)
Format : AC-3
Format/Info : Audio Coding 3
Commercial name : Dolby Digital
Codec ID : A_AC3
Duration : 1 h 41 min
Bit rate mode : Constant
Bit rate : 192 kb/s
Channel(s) : 2 channels
Channel layout : L R
Sampling rate : 48.0 kHz
Frame rate : 31.250 FPS (1536 SPF)
Compression mode : Lossy
Stream size : 140 MiB (1%)
Title : Irresistible.2020.1080p.BluRay.REMUX.AVC.DTS-HD.MA.5.1-FGT
Language : English
Service kind : Complete Main
Default : No
Forced : No
Original source medium : Blu-ray

Text #1
ID : 4
Format : UTF-8
Codec ID : S_TEXT/UTF8
Codec ID/Info : UTF-8 Plain Text
Duration : 1 h 40 min
Bit rate : 87 b/s
Count of elements : 1681
Stream size : 64.5 KiB (0%)
Title : English-SRT
Language : English
Default : Yes
Forced : No

Text #2
ID : 5
ID in the original source medium : 4608 (0x1200)
Format : PGS
Muxing mode : zlib
Codec ID : S_HDMV/PGS
Codec ID/Info : Picture based subtitle format used on BDs/HD-DVDs
Duration : 1 h 40 min
Bit rate : 62.6 kb/s
Count of elements : 3550
Stream size : 45.1 MiB (0%)
Title : English-PGS
Language : English
Default : No
Forced : No
Original source medium : Blu-ray

Text #3
ID : 6
ID in the original source medium : 4609 (0x1201)
Format : PGS
Muxing mode : zlib
Codec ID : S_HDMV/PGS
Codec ID/Info : Picture based subtitle format used on BDs/HD-DVDs
Duration : 1 h 41 min
Bit rate : 51.5 kb/s
Count of elements : 3254
Stream size : 37.3 MiB (0%)
Title : Spanish-PGS
Language : Spanish
Default : No
Forced : No
Original source medium : Blu-ray

Text #4
ID : 7
ID in the original source medium : 4610 (0x1202)
Format : PGS
Muxing mode : zlib
Codec ID : S_HDMV/PGS
Codec ID/Info : Picture based subtitle format used on BDs/HD-DVDs
Duration : 1 h 41 min
Bit rate : 60.9 kb/s
Count of elements : 3336
Stream size : 44.1 MiB (0%)
Title : French-PGS
Language : French
Default : No
Forced : No
Original source medium : Blu-ray

Menu
00:00:00.000 : en:Chapter 01
00:04:51.040 : en:Chapter 02
00:10:15.406 : en:Chapter 03
00:13:29.016 : en:Chapter 04
00:18:12.716 : en:Chapter 05
00:25:48.713 : en:Chapter 06
00:29:34.898 : en:Chapter 07
00:35:03.810 : en:Chapter 08
00:38:58.461 : en:Chapter 09
00:43:48.792 : en:Chapter 10
00:48:48.133 : en:Chapter 11
00:54:43.154 : en:Chapter 12
01:02:36.085 : en:Chapter 13
01:08:10.294 : en:Chapter 14
01:12:35.976 : en:Chapter 15
01:17:51.249 : en:Chapter 16
01:21:37.475 : en:Chapter 17
01:25:55.024 : en:Chapter 18
01:29:29.405 : en:Chapter 19
01:35:00.945 : en:Chapter 20

本帖子中包含更多资源

您需要 登录 才可以下载或查看,没有帐号?立即注册

x
回复

使用道具 举报

0

主题

619

帖子

4981

积分

VIP永久

Rank: 12Rank: 12Rank: 12

积分
4981
发表于 2020-9-9 19:24:24 | 显示全部楼层
感谢楼主分享!!!
回复

使用道具 举报

0

主题

610

帖子

2741

积分

金牌会员

Rank: 6Rank: 6

积分
2741
发表于 2020-9-10 14:46:16 | 显示全部楼层
感谢楼主分享高清影片
回复

使用道具 举报

0

主题

619

帖子

4690

积分

论坛元老

Rank: 8Rank: 8

积分
4690
发表于 2020-9-13 06:33:14 | 显示全部楼层
谢谢分享
谢谢分享
回复

使用道具 举报

您需要登录后才可以回帖 登录 | 立即注册

本版积分规则

QQ|Archiver|手机版|小黑屋|原盘天堂 盘盘多 点击这里给我发消息

GMT+8, 2020-9-24 06:53 , Processed in 0.062492 second(s), 24 queries .

Powered by Discuz! X3.4

Copyright © 2001-2020, Tencent Cloud.

快速回复 返回顶部 返回列表