请选择 进入手机版 | 继续访问电脑版
本站Q群713428235【盘盘多】已满,请新会员加原盘天堂新官方QQ群709708625【好多盘】,验证信息填写您在论坛的会员名,不填会员名的无法入群哈,进群后修改您的群名片名字为您在论坛的会员名,请务必修改,否则群成员多了不知道您是哪个会员。

原盘天堂

 找回密码
 立即注册
京东商城当当华为商城名牌时尚折扣网,一个新型的网上购物平台,我们每周为您精选3~4个国际知名品牌,商品折扣低至2折限时限量售卖,商品囊括时装、护肤品、箱包、皮具、配饰、香水等等,琳琅满目。亿格瑞A10硬盘播放器 苏宁易购
查看: 1474|回复: 15

4k蓝光原盘iso 流浪地球2 国语音轨 特效简繁中字 the.wandering.earth.ii.2023.2160p.gbr.uhd.blu-ray.hevc.dts-hd.ma5.1[dolby vision][84.54 GB]

[复制链接]

7972

主题

9286

帖子

136万

积分

管理员

Rank: 18Rank: 18Rank: 18Rank: 18Rank: 18

积分
1364338
发表于 2023-12-17 22:18:36 | 显示全部楼层 |阅读模式




◎译  名 《流浪地球》前传/The Wandering Earth 2/The Wandering Earth Ⅱ
◎片  名 流浪地球2
◎年  代 2023
◎产  地 中国大陆
◎类  别 科幻/冒险/灾难
◎语  言 汉语普通话/俄语/英语/印地语/法语/葡萄牙语/日语/韩语/泰语/南非荷兰语
◎上映日期 2023-01-22(中国大陆)
◎IMDb评分 6.9/10 from 12201 users
◎IMDb链接 https://www.imdb.com/title/tt13539646/
◎豆瓣评分 8.3/10 from 1240792 users
◎豆瓣链接 https://douban.com/subject/35267208/
◎片  长 173分钟
◎导  演 郭帆 Frant Gwo
◎编  剧 杨治学 Zhixue Yang / 龚格尔 Ge'er Gong / 郭帆 Frant Gwo / 叶濡畅 Ruchang Ye / 刘慈欣 Cixin Liu
◎主  演 吴京 Jing Wu
      刘德华 Andy Lau
      李雪健 Xuejian Li
      沙溢 Yi Sha
      宁理 Li Ning
      王智 Zhi Wang
      朱颜曼滋 Yanmanzi Zhu
      安地 Andy Friend
      王若熹 Ruoxi Wang
      佟丽娅 Liya Tong
      伟大力 Vatilli Makarychev
      张衣 Yi Zhang
      天使 Kawawa Kadichi
      克拉拉 Clara Lee
      叶展飞 Vladimir Ershov
      倪腾 Tony Nicholson
      胡先煦 Xianxu Hu
      霍青 Qing Huo
      刘寅 Michael Liu
      国义骞 Yiqian Guo
      吴恩璇 Enxuan Wu
      王红卫 Hongwei Wang
      孔大山 Dashan Kong
      徐建 Eric Xu
      刘佳沄 Jiayun Liu
      丁燕来 Yanlai Ding
      郜昂 Ang Gao
      严华 Hua Yan
      李仁 Ren Li
      洪真 Ang Cin
      王磊 Lei Wang
      王一通 Roy Wang
      杨洪涛 Hongtao Yang
      赵叶索 Yesuo Zhao
      李路琦 Luqi Li
      黄纪渊 Jiyuan Huang
      郑楚一 Chuyi Zheng
      吴静一 Jingyi Wu
      付嘉灏 Jiahao Fu
      瓦伦廷·沃罗布耶夫 Valentin Volobuev
      李一冉 Yiran Li
      周强 Qiang Zhou
      朱超艺 Chaoyi Zhu
      何金和龙 He Jinhelong
      何金和金 He Jinhejin
      张涛 Tao Zhang
      向进 Xiang Jin
      李沛东 Peidong Li
      柯国庆 Scotty Cox
      李丹妮 Daniela Tassy
      刘毅然
      弗兰克·阿贝尔 Frank Abel
      哈立德·加纳姆 Khalid Ghanem
      甄子琦 Ziqi Zhen
      杰西卡·贝尔德 Jessica Baird
      安德鲁·李 Andrew Lee
      艾丽莎·芬尼根 Alysa Finnegan

◎简  介

  
  在并不遥远的未来,太阳急速衰老与膨胀,再过几百年整个太阳系将被它吞噬毁灭。为了应对这场史无前例的危机,地球各国放下芥蒂,成立联合政府,试图寻找人类存续的出路。通过摸索与考量,最终推着地球逃出太阳系的“移山计划”获得压倒性胜利。人们着手建造上万台巨大的行星发动机,带着地球踏上漫漫征程。满腔赤诚的刘培强(吴京 饰)和韩朵朵(王智 饰)历经层层考验成为航天员大队的一员,并由此相知相恋。但是漫漫征途的前方,仿佛有一股神秘的力量不断破坏者人类的自救计划。看似渺小的刘培强、量子科学家图恒宇(刘德华 饰)、联合政府中国代表周喆直(李雪健 饰)以及无数平凡的地球人,构成了这项伟大计划的重要一环……
  
  本片根据刘慈欣同名科幻小说改编。
  

◎获奖情况

  第36届中国电影金鸡奖 (2023)
  最佳故事片(提名)
  最佳美术(提名) 郜昂
  最佳录音 祝岩峰 / 王丹戎
  评委会特别奖
  
  第18届中国长春电影节 (2023)
  金鹿奖最佳影片奖
  金鹿奖最佳导演(提名) 郭帆
  金鹿奖最佳编剧(提名) 龚格尔 / 叶濡畅 / 郭帆 / 杨治学
  金鹿奖最佳摄影 刘寅
  金鹿奖最佳音乐(提名) 阿鲲
  金鹿奖最佳剪辑(提名) 张嘉辉 / 叶濡畅 / 叶翔 / 闫婷婷


Video
ID : 1
Format : HEVC
Format/Info : High Efficiency Video Coding
Format profile : Main@L5@Main
Codec ID : V_MPEGH/ISO/HEVC
Duration : 2 h 53 min
Bit rate : 5 456 kb/s
Width : 3 840 pixels
Height : 1 608 pixels
Display aspect ratio : 2.40:1
Frame rate mode : Constant
Frame rate : 24.000 FPS
Color space : YUV
Chroma subsampling : 4:2:0
Bit depth : 8 bits
Bits/(Pixel*Frame) : 0.037
Stream size : 6.61 GiB (97%)
Default : Yes
Forced : No

Audio
ID : 2
Format : AAC LC
Format/Info : Advanced Audio Codec Low Complexity
Codec ID : A_AAC-2
Duration : 2 h 53 min
Bit rate : 192 kb/s
Channel(s) : 2 channels
Channel layout : L R
Sampling rate : 44.1 kHz
Frame rate : 43.066 FPS (1024 SPF)
Compression mode : Lossy
Stream size : 235 MiB (3%)
Language : Sichuan Yi
Default : Yes
Forced : No

本帖子中包含更多资源

您需要 登录 才可以下载或查看,没有帐号?立即注册

x
回复

使用道具 举报

0

主题

539

帖子

5496

积分

论坛元老

Rank: 8Rank: 8

积分
5496
发表于 2023-12-18 16:43:50 | 显示全部楼层
谢谢分享。。
回复

使用道具 举报

0

主题

19

帖子

244

积分

中级会员

Rank: 3Rank: 3

积分
244
发表于 2023-12-18 19:39:40 | 显示全部楼层
谢谢分享
回复

使用道具 举报

0

主题

10

帖子

56

积分

注册会员

Rank: 2

积分
56
发表于 2023-12-18 23:19:23 | 显示全部楼层
感谢分享
回复

使用道具 举报

0

主题

3

帖子

23

积分

新手上路

Rank: 1

积分
23
发表于 2023-12-20 09:43:47 | 显示全部楼层
谢谢分享。。,看一下
回复

使用道具 举报

0

主题

1

帖子

9

积分

新手上路

Rank: 1

积分
9
发表于 2023-12-20 10:58:30 | 显示全部楼层
谢谢分享
回复

使用道具 举报

0

主题

122

帖子

938

积分

高级会员

Rank: 4

积分
938
发表于 2023-12-30 00:45:59 | 显示全部楼层
谢谢楼主分享
回复

使用道具 举报

0

主题

73

帖子

551

积分

高级会员

Rank: 4

积分
551
发表于 2023-12-31 09:25:55 | 显示全部楼层
谢谢楼主分享
回复

使用道具 举报

0

主题

35

帖子

945

积分

高级会员

Rank: 4

积分
945
发表于 2024-1-12 10:45:03 | 显示全部楼层
谢谢分享
回复

使用道具 举报

0

主题

6

帖子

46

积分

新手上路

Rank: 1

积分
46
发表于 2024-1-14 09:58:09 | 显示全部楼层
谢谢分享
回复

使用道具 举报

您需要登录后才可以回帖 登录 | 立即注册

本版积分规则

QQ|Archiver|手机版|小黑屋|原盘天堂 好多盘 点击这里给我发消息

GMT+8, 2024-5-19 12:55 , Processed in 0.069138 second(s), 25 queries .

Powered by Discuz! X3.4

Copyright © 2001-2021, Tencent Cloud.

快速回复 返回顶部 返回列表