请选择 进入手机版 | 继续访问电脑版
本站Q群713428235【盘盘多】已满,请新会员加原盘天堂新官方QQ群709708625【好多盘】,验证信息填写您在论坛的会员名,不填会员名的无法入群哈,进群后修改您的群名片名字为您在论坛的会员名,请务必修改,否则群成员多了不知道您是哪个会员。

原盘天堂

 找回密码
 立即注册
京东商城当当华为商城名牌时尚折扣网,一个新型的网上购物平台,我们每周为您精选3~4个国际知名品牌,商品折扣低至2折限时限量售卖,商品囊括时装、护肤品、箱包、皮具、配饰、香水等等,琳琅满目。亿格瑞A10硬盘播放器 苏宁易购
查看: 164|回复: 2

2d蓝光原盘bdmv 外星+人 韩语原版 alienoid.2022.korean.1080p.bluray.avc.dts-hd.ma.5.1[44.58 GB]

[复制链接]

7423

主题

8549

帖子

135万

积分

管理员

Rank: 18Rank: 18Rank: 18Rank: 18Rank: 18

积分
1353705
发表于 2022-12-30 10:17:42 | 显示全部楼层 |阅读模式








◎译  名 外星+人/外星+人1/祖宗膠戰外星人(港)/Alien + People: Part 1/Alien Part.1/Alienoid/시간의 칼/외계인
◎片  名 외계+인 1부
◎年  代 2022
◎产  地 韩国
◎类  别 科幻/古装
◎语  言 韩语
◎上映日期 2022-07-20(韩国)
◎IMDb链接 https://www.imdb.com/title/tt20168564/
◎豆瓣评分 6.5/10 from 9726 users
◎豆瓣链接 https://douban.com/subject/34456011/
◎片  长 142分钟
◎导  演 崔东勋 Dong-hoon Choi
◎编  剧 崔东勋 Dong-hoon Choi / 李基哲 Gi-cheol Lee
◎主  演 柳俊烈 Jun-yeol Ryu
      金宇彬 Woo-bin Kim
      金泰梨 Tae-ri Kim
      苏志燮 Ji-seob So
      廉晶雅 Jung-ah Yum
      赵祐镇 Woo-jin Jo
      金义城 Eui-sung Kim
      李荷妮 Ha-nui Lee
      申正根 Jeong-geun Sin
      李时勋 Si-hoon Lee
      刘在明 Jae-myung Yoo
      金灿亨 Kim Chan Hyung

◎简  介

  
  该片讲述了道士们争夺传闻中神剑的高丽末期和外星人出没的2022年之间的时光之门被打开后,引发的异想天开的故事。
  

◎获奖情况

  第43届韩国电影青龙奖 (2022)
  技术奖(提名)
  
  第58届韩国电影大钟奖 (2022)
  最佳剪辑(提名)
  最佳美术
  最佳音乐(提名)
  最佳服装(提名)
  最佳视觉效果


DISC INFO:

Disc Title:     Alienoid.2022.KOREAN.1080p.BluRay.AVC.DTS-HD.MA.5.1-FGT
Disc Size:      47,871,934,199 bytes
Protection:     AACS
BDInfo:         0.7.5.9 (compatible layout created by DVDFab 12.0.9.2)

PLAYLIST REPORT:

Name:                   00001.MPLS  
Length:                 2:22:48.977 (h:m:s.ms)
Size:                   43,980,134,400 bytes
Total Bitrate:          41.06 Mbps

VIDEO:

Codec                   Bitrate             Description   
-----                   -------             -----------   
MPEG-4 AVC Video        32989 kbps          1080p / 23.976 fps / 16:9 / High Profile 4.1

AUDIO:

Codec                           Language        Bitrate         Description   
-----                           --------        -------         -----------   
DTS-HD Master Audio             Korean          2508 kbps       5.1 / 48 kHz / 2508 kbps / 16-bit (DTS Core: 5.1 / 48 kHz / 1509 kbps / 16-bit)
Dolby Digital Audio             Korean          384 kbps        2.0 / 48 kHz / 384 kbps
DTS-HD Master Audio             English         2476 kbps       5.1 / 48 kHz / 2476 kbps / 16-bit (DTS Core: 5.1 / 48 kHz / 1509 kbps / 16-bit)
Dolby Digital Audio             English         384 kbps        2.0 / 48 kHz / 384 kbps

SUBTITLES:

Codec                           Language        Bitrate         Description   
-----                           --------        -------         -----------   
Presentation Graphics           English         25.608 kbps   


Video
ID : 1
ID in the original source medium : 4113 (0x1011)
Format : AVC
Format/Info : Advanced Video Codec
Format profile : [email protected]
Format settings : CABAC / 4 Ref Frames
Format settings, CABAC : Yes
Format settings, Reference frames : 4 frames
Codec ID : V_MPEG4/ISO/AVC
Duration : 2 h 22 min
Bit rate mode : Variable
Bit rate : 32.6 Mb/s
Maximum bit rate : 35.0 Mb/s
Width : 1 920 pixels
Height : 1 080 pixels
Display aspect ratio : 16:9
Frame rate mode : Constant
Frame rate : 23.976 (24000/1001) FPS
Color space : YUV
Chroma subsampling : 4:2:0
Bit depth : 8 bits
Scan type : Progressive
Bits/(Pixel*Frame) : 0.655
Stream size : 32.5 GiB (85%)
Language : English
Default : No
Forced : No
Original source medium : Blu-ray

Audio #1
ID : 2
ID in the original source medium : 4352 (0x1100)
Format : DTS XLL
Format/Info : Digital Theater Systems
Commercial name : DTS-HD Master Audio
Codec ID : A_DTS
Duration : 2 h 22 min
Bit rate mode : Variable
Bit rate : 2 508 kb/s
Channel(s) : 6 channels
Channel layout : C L R Ls Rs LFE
Sampling rate : 48.0 kHz
Frame rate : 93.750 FPS (512 SPF)
Bit depth : 16 bits
Compression mode : Lossless
Stream size : 2.50 GiB (7%)
Title : DTS-HD MA 5.1
Language : Korean
Default : Yes
Forced : No
Original source medium : Blu-ray

Audio #2
ID : 3
ID in the original source medium : 4353 (0x1101)
Format : AC-3
Format/Info : Audio Coding 3
Commercial name : Dolby Digital
Codec ID : A_AC3
Duration : 2 h 22 min
Bit rate mode : Constant
Bit rate : 384 kb/s
Channel(s) : 2 channels
Channel layout : L R
Sampling rate : 48.0 kHz
Frame rate : 31.250 FPS (1536 SPF)
Compression mode : Lossy
Stream size : 392 MiB (1%)
Title : DD 2.0
Language : Korean
Service kind : Complete Main
Default : No
Forced : No
Original source medium : Blu-ray

Audio #3
ID : 4
ID in the original source medium : 4354 (0x1102)
Format : DTS XLL
Format/Info : Digital Theater Systems
Commercial name : DTS-HD Master Audio
Codec ID : A_DTS
Duration : 2 h 22 min
Bit rate mode : Variable
Bit rate : 2 476 kb/s
Channel(s) : 6 channels
Channel layout : C L R Ls Rs LFE
Sampling rate : 48.0 kHz
Frame rate : 93.750 FPS (512 SPF)
Bit depth : 16 bits
Compression mode : Lossless
Stream size : 2.47 GiB (6%)
Title : DTS-HD MA 5.1
Language : English
Default : No
Forced : No
Original source medium : Blu-ray

Audio #4
ID : 5
ID in the original source medium : 4355 (0x1103)
Format : AC-3
Format/Info : Audio Coding 3
Commercial name : Dolby Digital
Codec ID : A_AC3
Duration : 2 h 22 min
Bit rate mode : Constant
Bit rate : 384 kb/s
Channel(s) : 2 channels
Channel layout : L R
Sampling rate : 48.0 kHz
Frame rate : 31.250 FPS (1536 SPF)
Compression mode : Lossy
Stream size : 392 MiB (1%)
Title : DD 2.0
Language : English
Service kind : Complete Main
Default : No
Forced : No
Original source medium : Blu-ray

Text #1
ID : 6
Format : UTF-8
Codec ID : S_TEXT/UTF8
Codec ID/Info : UTF-8 Plain Text
Duration : 2 h 19 min
Bit rate : 40 b/s
Frame rate : 0.166 FPS
Count of elements : 1389
Stream size : 41.1 KiB (0%)
Language : English
Default : Yes
Forced : No

Text #2
ID : 7
ID in the original source medium : 4608 (0x1200)
Format : PGS
Muxing mode : zlib
Codec ID : S_HDMV/PGS
Codec ID/Info : Picture based subtitle format used on BDs/HD-DVDs
Duration : 2 h 19 min
Bit rate : 26.3 kb/s
Frame rate : 0.292 FPS
Count of elements : 2441
Stream size : 26.2 MiB (0%)
Language : English
Default : No
Forced : No
Original source medium : Blu-ray

Text #3
ID : 8
ID in the original source medium : 4608 (0x1200)
Format : PGS
Muxing mode : zlib
Codec ID : S_HDMV/PGS
Codec ID/Info : Picture based subtitle format used on BDs/HD-DVDs
Duration : 1 h 27 min
Bit rate : 86 b/s
Frame rate : 0.002 FPS
Count of elements : 8
Stream size : 55.5 KiB (0%)
Language : English
Default : No
Forced : No
Original source medium : Blu-ray

Menu
00:00:00.000 : en:Chapter 01
00:16:46.213 : en:Chapter 02
00:25:49.881 : en:Chapter 03
00:33:12.740 : en:Chapter 04
00:38:47.283 : en:Chapter 05
00:54:32.560 : en:Chapter 06
01:05:46.317 : en:Chapter 07
01:23:35.802 : en:Chapter 08
01:34:28.329 : en:Chapter 09
01:43:55.187 : en:Chapter 10
01:55:22.749 : en:Chapter 11
02:02:57.078 : en:Chapter 12

本帖子中包含更多资源

您需要 登录 才可以下载或查看,没有帐号?立即注册

x
回复

使用道具 举报

0

主题

17

帖子

99

积分

注册会员

Rank: 2

积分
99
发表于 5 天前 | 显示全部楼层
蓝光 支持 蓝光。。。。。
回复

使用道具 举报

0

主题

32

帖子

66

积分

注册会员

Rank: 2

积分
66
发表于 3 天前 | 显示全部楼层
感谢分享感谢分享感谢分享
回复

使用道具 举报

您需要登录后才可以回帖 登录 | 立即注册

本版积分规则

QQ|Archiver|手机版|小黑屋|原盘天堂 好多盘 点击这里给我发消息

GMT+8, 2023-1-29 10:16 , Processed in 0.043548 second(s), 25 queries .

Powered by Discuz! X3.4

Copyright © 2001-2021, Tencent Cloud.

快速回复 返回顶部 返回列表