请选择 进入手机版 | 继续访问电脑版
本站Q群713428235【盘盘多】已满,请新会员加原盘天堂新官方QQ群709708625【好多盘】,验证信息填写您在论坛的会员名,不填会员名的无法入群哈,进群后修改您的群名片名字为您在论坛的会员名,请务必修改,否则群成员多了不知道您是哪个会员。

原盘天堂

 找回密码
 立即注册
京东商城当当华为商城名牌时尚折扣网,一个新型的网上购物平台,我们每周为您精选3~4个国际知名品牌,商品折扣低至2折限时限量售卖,商品囊括时装、护肤品、箱包、皮具、配饰、香水等等,琳琅满目。亿格瑞A10硬盘播放器 苏宁易购
查看: 66|回复: 0

2d蓝光原盘remux 弗雷加德 英语原版 rogue.agent.2022.1080p.bluray.remux.avc.dts-hd.ma.5.1[17.83 GB]

[复制链接]

7423

主题

8549

帖子

135万

积分

管理员

Rank: 18Rank: 18Rank: 18Rank: 18Rank: 18

积分
1353705
发表于 2022-12-29 10:59:19 | 显示全部楼层 |阅读模式






◎译  名 弗雷加德/Chasing Agent Freegard/Freegard
◎片  名 Rogue Agent
◎年  代 2022
◎产  地 英国
◎类  别 惊悚
◎语  言 英语
◎上映日期 2022-07-27(英国网络)/2022-08-12(美国)
◎IMDb评分 6.4/10 from 6333 users
◎IMDb链接 https://www.imdb.com/title/tt9731386/
◎豆瓣评分 7.1/10 from 1338 users
◎豆瓣链接 https://douban.com/subject/35472740/
◎片  长 116分钟
◎导  演 德克兰·朗 Declan Lawn / 亚当·帕特森 Adam Patterson
◎编  剧 迈克尔·布朗纳 Michael Bronner
◎主  演 詹姆斯·诺顿 James Norton
      杰玛·阿特登 Gemma Arterton
      萨拉·古德伯格 Sarah Goldberg
      沙扎德·拉蒂夫 Shazad Latif
      弗雷娅·梅弗 Freya Mavor
      吉米·耶肯博拉 Jimmy Akingbola
      朱利安·巴拉特 Julian Barratt
      玛瑞萨·阿贝拉 Marisa Abela
      埃德温娜·芬德利·迪克森 Edwina Findley Dickerson
      ‎迈克尔·芬顿·史蒂文斯‎ Michael Fenton Stevens
      菲利普·瑞特 Philip Wright
      罗布·马龙 Rob Malone
      卢克·皮埃尔 Luke Pierre

◎简  介

  
  该片故事改编自布朗纳撰写的文章《追踪弗雷 加德特工》(Chasing Agent Freegard),讲述一桩真实发生的故事,职业骗子罗伯特·弗雷加德(诺顿饰)是个操纵人心的高手,他让无数受害者相信他是军情五处的卧底,以此敲诈和绑架他们。阿特登所饰的角色最初为他的魅力所倾倒,后来成为了弗雷加德垮台的关键人物,她的行动导致他被定罪和逮捕。


Video
ID : 1
ID in the original source medium : 4113 (0x1011)
Format : AVC
Format/Info : Advanced Video Codec
Format profile : [email protected]
Format settings : CABAC / 4 Ref Frames
Format settings, CABAC : Yes
Format settings, Reference frames : 4 frames
Format settings, GOP : M=1, N=23
Codec ID : V_MPEG4/ISO/AVC
Duration : 1 h 56 min
Bit rate mode : Variable
Bit rate : 20.0 Mb/s
Maximum bit rate : 34.0 Mb/s
Width : 1 920 pixels
Height : 1 080 pixels
Display aspect ratio : 16:9
Frame rate mode : Constant
Frame rate : 24.000 FPS
Color space : YUV
Chroma subsampling : 4:2:0
Bit depth : 8 bits
Scan type : Progressive
Bits/(Pixel*Frame) : 0.402
Stream size : 16.2 GiB (91%)
Writing library : x264 core 155
Encoding settings : cabac=1 / ref=4 / deblock=1:0:0 / analyse=0x3:0x113 / me=umh / subme=8 / psy=1 / psy_rd=1.00:0.00 / mixed_ref=1 / me_range=16 / chroma_me=1 / trellis=1 / 8x8dct=1 / cqm=0 / deadzone=21,11 / fast_pskip=1 / chroma_qp_offset=-2 / threads=36 / lookahead_threads=6 / sliced_threads=0 / slices=4 / nr=0 / decimate=1 / interlaced=0 / bluray_compat=0 / stitchable=1 / constrained_intra=0 / bframes=3 / b_pyramid=0 / b_adapt=1 / b_bias=0 / direct=3 / weightb=1 / open_gop=0 / weightp=1 / keyint=24 / keyint_min=1 / scenecut=40 / intra_refresh=0 / rc_lookahead=24 / rc=2pass / mbtree=1 / bitrate=20000 / ratetol=1.0 / qcomp=0.60 / qpmin=0 / qpmax=69 / qpstep=4 / cplxblur=20.0 / qblur=0.5 / vbv_maxrate=34000 / vbv_bufsize=20000 / nal_hrd=vbr / filler=0 / ip_ratio=1.40 / aq=3:1.00
Language : English
Default : No
Forced : No
Original source medium : Blu-ray

Audio
ID : 2
ID in the original source medium : 4352 (0x1100)
Format : DTS XLL
Format/Info : Digital Theater Systems
Commercial name : DTS-HD Master Audio
Codec ID : A_DTS
Duration : 1 h 56 min
Bit rate mode : Variable
Bit rate : 1 993 kb/s
Channel(s) : 6 channels
Channel layout : C L R Ls Rs LFE
Sampling rate : 48.0 kHz
Frame rate : 93.750 FPS (512 SPF)
Bit depth : 16 bits
Compression mode : Lossless
Stream size : 1.62 GiB (9%)
Title : DTS-HD MA 5.1
Language : English
Default : Yes
Forced : No
Original source medium : Blu-ray

Text #1
ID : 3
Format : UTF-8
Codec ID : S_TEXT/UTF8
Codec ID/Info : UTF-8 Plain Text
Duration : 1 h 52 min
Bit rate : 54 b/s
Frame rate : 0.218 FPS
Count of elements : 1471
Stream size : 44.7 KiB (0%)
Language : English
Default : Yes
Forced : No

Text #2
ID : 4
Format : UTF-8
Codec ID : S_TEXT/UTF8
Codec ID/Info : UTF-8 Plain Text
Duration : 1 h 54 min
Bit rate : 61 b/s
Frame rate : 0.250 FPS
Count of elements : 1726
Stream size : 51.8 KiB (0%)
Title : SDH
Language : English
Default : No
Forced : No

Menu
00:00:00.000 : en:Chapter 01
00:16:23.833 : en:Chapter 02
00:26:53.333 : en:Chapter 03
00:36:30.333 : en:Chapter 04
00:56:48.375 : en:Chapter 05
01:14:32.291 : en:Chapter 06
01:28:05.416 : en:Chapter 07
01:41:59.833 : en:Chapter 08
01:52:55.833 : en:Chapter 09

本帖子中包含更多资源

您需要 登录 才可以下载或查看,没有帐号?立即注册

x
回复

使用道具 举报

您需要登录后才可以回帖 登录 | 立即注册

本版积分规则

QQ|Archiver|手机版|小黑屋|原盘天堂 好多盘 点击这里给我发消息

GMT+8, 2023-1-29 10:01 , Processed in 0.052177 second(s), 25 queries .

Powered by Discuz! X3.4

Copyright © 2001-2021, Tencent Cloud.

快速回复 返回顶部 返回列表