请选择 进入手机版 | 继续访问电脑版
本站Q群713428235【盘盘多】已满,请新会员加原盘天堂新官方QQ群709708625【好多盘】,验证信息填写您在论坛的会员名,不填会员名的无法入群哈,进群后修改您的群名片名字为您在论坛的会员名,请务必修改,否则群成员多了不知道您是哪个会员。

原盘天堂

 找回密码
 立即注册
京东商城当当华为商城名牌时尚折扣网,一个新型的网上购物平台,我们每周为您精选3~4个国际知名品牌,商品折扣低至2折限时限量售卖,商品囊括时装、护肤品、箱包、皮具、配饰、香水等等,琳琅满目。亿格瑞A10硬盘播放器 苏宁易购
查看: 79|回复: 1

2d蓝光原盘bdmv 天堂门票 英语原版 ticket.to.paradise.2022.1080p.bluray.avc.dts-hd.ma.7.1[36.15 GB]

[复制链接]

7423

主题

8549

帖子

135万

积分

管理员

Rank: 18Rank: 18Rank: 18Rank: 18Rank: 18

积分
1353705
发表于 2022-12-29 10:04:55 | 显示全部楼层 |阅读模式








◎译  名 天堂门票/天堂的门票/通天票/幸福入场券(台)
◎片  名 Ticket To Paradise
◎年  代 2022
◎产  地 美国/英国
◎类  别 喜剧/爱情
◎语  言 英语
◎上映日期 2022-09-14(澳大利亚)/2022-10-21(美国)
◎IMDb评分 6.2/10 from 32375 users
◎IMDb链接 https://www.imdb.com/title/tt14109724/
◎豆瓣评分 6.3/10 from 5132 users
◎豆瓣链接 https://douban.com/subject/35382459/
◎片  长 104分钟
◎导  演 欧·帕克 Ol Parker
◎编  剧 欧·帕克 Ol Parker / 丹尼尔·皮普斯基 Daniel Pipski
◎主  演 乔治·克鲁尼 George Clooney
      朱莉娅·罗伯茨 Julia Roberts
      肖恩·林奇 Sean Lynch
      艾莉尔·卡弗-奥尼尔 Arielle Carver-O'Neill
      唐玲雪 Ling Hsueh Tang
      比莉·洛德 Billie Lourd
      凯特琳·德弗 Kaitlyn Dever
      马克西姆·布蒂尔 Maxime Bouttier
      吉娜维夫·莱蒙 Geneviève Lemon
      罗米·普利耶 Romy Poulier
      卢卡斯·布哈沃 Lucas Bravo
      辛提亚·达玛扬提 Cintya Dharmayanti
      罗温··查普曼 Rowan Chapman
      凡妮莎·埃弗里特 Vanesa Everett
      易卜拉欣·伊西克塔斯 Ibrahim Isiktas
      穆兰·凯恩 Murran Kain
      塞纳·梅布拉图 Senayt Mebrahtu
      阿曼达·奥登普西 Amanda O'Dempsey
      艾萨克·普瑞斯特 Isaac Priest

◎简  介

  
  乔治·克鲁尼、朱莉娅·罗伯茨大银幕再度合体,饰演一对早已离婚的夫妻被迫携手合作,试图阻止他们被爱冲昏了头的女儿犯下他们曾经犯过的错误。本片是一部关于第二次机会带来的甜美惊喜的爱情喜剧片。

      DISC INFO:

Disc Title:     Ticket.to.Paradise.2022.COMPLETE.BLURAY-UNTOUCHED
Disc Size:      38,806,527,763 bytes
Protection:     AACS
Extras:         BD-Java
BDInfo:         0.7.5.9 (compatible layout created by DVDFab 12.0.9.2)

PLAYLIST REPORT:

Name:                   00612.MPLS  
Length:                 1:44:01.235 (h:m:s.ms)
Size:                   34,613,010,432 bytes
Total Bitrate:          44.37 Mbps

VIDEO:

Codec                   Bitrate             Description   
-----                   -------             -----------   
MPEG-4 AVC Video        30592 kbps          1080p / 23.976 fps / 16:9 / High Profile 4.1

AUDIO:

Codec                           Language        Bitrate         Description   
-----                           --------        -------         -----------   
DTS-HD Master Audio             English         4550 kbps       7.1 / 48 kHz / 4550 kbps / 24-bit (DTS Core: 5.1 / 48 kHz / 1509 kbps / 24-bit)
DTS-HD High-Res Audio           French          2046 kbps       7.1 / 48 kHz / 2046 kbps / 24-bit (DTS Core: 5.1 / 48 kHz / 1509 kbps / 24-bit)
DTS-HD High-Res Audio           German          2046 kbps       7.1 / 48 kHz / 2046 kbps / 24-bit (DTS Core: 5.1 / 48 kHz / 1509 kbps / 24-bit)
DTS-HD High-Res Audio           Italian         2046 kbps       7.1 / 48 kHz / 2046 kbps / 24-bit (DTS Core: 5.1 / 48 kHz / 1509 kbps / 24-bit)
Dolby Digital Audio             English         192 kbps        2.0 / 48 kHz / 192 kbps

SUBTITLES:

Codec                           Language        Bitrate         Description   
-----                           --------        -------         -----------   
Presentation Graphics           English         53.107 kbps                    
Presentation Graphics           French          36.679 kbps                    
Presentation Graphics           German          42.216 kbps                    
Presentation Graphics           Italian         42.081 kbps                    
Presentation Graphics           Dutch           34.802 kbps                    
Presentation Graphics           English         0.312 kbps                     
Presentation Graphics           French          0.529 kbps                     
Presentation Graphics           German          0.644 kbps                     
Presentation Graphics           Italian         0.679 kbps   


Video
ID : 1
ID in the original source medium : 4113 (0x1011)
Format : AVC
Format/Info : Advanced Video Codec
Format profile : [email protected]
Format settings : CABAC / 2 Ref Frames
Format settings, CABAC : Yes
Format settings, Reference frames : 2 frames
Codec ID : V_MPEG4/ISO/AVC
Duration : 1 h 44 min
Bit rate mode : Variable
Bit rate : 30.6 Mb/s
Width : 1 920 pixels
Height : 1 080 pixels
Display aspect ratio : 16:9
Frame rate mode : Constant
Frame rate : 23.976 (24000/1001) FPS
Color space : YUV
Chroma subsampling : 4:2:0
Bit depth : 8 bits
Scan type : Progressive
Bits/(Pixel*Frame) : 0.615
Stream size : 22.2 GiB (74%)
Language : English
Default : No
Forced : No
Original source medium : Blu-ray

Audio #1
ID : 2
ID in the original source medium : 4352 (0x1100)
Format : DTS XLL
Format/Info : Digital Theater Systems
Commercial name : DTS-HD Master Audio
Codec ID : A_DTS
Duration : 1 h 44 min
Bit rate mode : Variable
Bit rate : 4 550 kb/s
Channel(s) : 8 channels
Channel layout : C L R LFE Lb Rb Lss Rss
Sampling rate : 48.0 kHz
Frame rate : 93.750 FPS (512 SPF)
Bit depth : 24 bits
Compression mode : Lossless
Stream size : 3.31 GiB (11%)
Title : DTS-HD MA 7.1
Language : English
Default : Yes
Forced : No
Original source medium : Blu-ray

Audio #2
ID : 3
ID in the original source medium : 4353 (0x1101)
Format : DTS XBR
Format/Info : Digital Theater Systems
Commercial name : DTS-HD High Resolution Audio
Codec ID : A_DTS
Duration : 1 h 44 min
Bit rate mode : Constant
Bit rate : 2 046 kb/s
Channel(s) : 8 channels
Channel layout : C L R LFE Lb Rb Lss Rss
Sampling rate : 48.0 kHz
Frame rate : 93.750 FPS (512 SPF)
Bit depth : 24 bits
Compression mode : Lossy
Stream size : 1.49 GiB (5%)
Title : DTS-HD MA 7.1
Language : French
Default : No
Forced : No
Original source medium : Blu-ray

Audio #3
ID : 4
ID in the original source medium : 4354 (0x1102)
Format : DTS XBR
Format/Info : Digital Theater Systems
Commercial name : DTS-HD High Resolution Audio
Codec ID : A_DTS
Duration : 1 h 44 min
Bit rate mode : Constant
Bit rate : 2 046 kb/s
Channel(s) : 8 channels
Channel layout : C L R LFE Lb Rb Lss Rss
Sampling rate : 48.0 kHz
Frame rate : 93.750 FPS (512 SPF)
Bit depth : 24 bits
Compression mode : Lossy
Stream size : 1.49 GiB (5%)
Title : DTS-HD MA 7.1
Language : German
Default : No
Forced : No
Original source medium : Blu-ray

Audio #4
ID : 5
ID in the original source medium : 4355 (0x1103)
Format : DTS XBR
Format/Info : Digital Theater Systems
Commercial name : DTS-HD High Resolution Audio
Codec ID : A_DTS
Duration : 1 h 44 min
Bit rate mode : Constant
Bit rate : 2 046 kb/s
Channel(s) : 8 channels
Channel layout : C L R LFE Lb Rb Lss Rss
Sampling rate : 48.0 kHz
Frame rate : 93.750 FPS (512 SPF)
Bit depth : 24 bits
Compression mode : Lossy
Stream size : 1.49 GiB (5%)
Title : DTS-HD MA 7.1
Language : Italian
Default : No
Forced : No
Original source medium : Blu-ray

Audio #5
ID : 6
ID in the original source medium : 4356 (0x1104)
Format : AC-3
Format/Info : Audio Coding 3
Commercial name : Dolby Digital
Codec ID : A_AC3
Duration : 1 h 44 min
Bit rate mode : Constant
Bit rate : 192 kb/s
Channel(s) : 2 channels
Channel layout : L R
Sampling rate : 48.0 kHz
Frame rate : 31.250 FPS (1536 SPF)
Compression mode : Lossy
Stream size : 143 MiB (0%)
Title : DD 2.0
Language : English
Service kind : Complete Main
Default : No
Forced : No
Original source medium : Blu-ray

Text #1
ID : 7
Format : UTF-8
Codec ID : S_TEXT/UTF8
Codec ID/Info : UTF-8 Plain Text
Duration : 1 h 38 min
Bit rate : 72 b/s
Frame rate : 0.277 FPS
Count of elements : 1639
Stream size : 52.5 KiB (0%)
Language : English
Default : Yes
Forced : No

Text #2
ID : 8
Format : UTF-8
Codec ID : S_TEXT/UTF8
Codec ID/Info : UTF-8 Plain Text
Duration : 1 h 38 min
Bit rate : 81 b/s
Frame rate : 0.305 FPS
Count of elements : 1809
Stream size : 58.9 KiB (0%)
Title : SDH
Language : English
Default : No
Forced : No

Text #3
ID : 9
ID in the original source medium : 4608 (0x1200)
Format : PGS
Muxing mode : zlib
Codec ID : S_HDMV/PGS
Codec ID/Info : Picture based subtitle format used on BDs/HD-DVDs
Duration : 1 h 38 min
Bit rate : 55.9 kb/s
Frame rate : 0.618 FPS
Count of elements : 3662
Stream size : 39.5 MiB (0%)
Language : English
Default : No
Forced : No
Original source medium : Blu-ray

Text #4
ID : 10
ID in the original source medium : 4609 (0x1201)
Format : PGS
Muxing mode : zlib
Codec ID : S_HDMV/PGS
Codec ID/Info : Picture based subtitle format used on BDs/HD-DVDs
Duration : 1 h 43 min
Bit rate : 36.9 kb/s
Frame rate : 0.475 FPS
Count of elements : 2944
Stream size : 27.3 MiB (0%)
Language : French
Default : No
Forced : No
Original source medium : Blu-ray

Text #5
ID : 11
ID in the original source medium : 4610 (0x1202)
Format : PGS
Muxing mode : zlib
Codec ID : S_HDMV/PGS
Codec ID/Info : Picture based subtitle format used on BDs/HD-DVDs
Duration : 1 h 43 min
Bit rate : 42.5 kb/s
Frame rate : 0.424 FPS
Count of elements : 2628
Stream size : 31.4 MiB (0%)
Language : German
Default : No
Forced : No
Original source medium : Blu-ray

Text #6
ID : 12
ID in the original source medium : 4611 (0x1203)
Format : PGS
Muxing mode : zlib
Codec ID : S_HDMV/PGS
Codec ID/Info : Picture based subtitle format used on BDs/HD-DVDs
Duration : 1 h 43 min
Bit rate : 42.3 kb/s
Frame rate : 0.478 FPS
Count of elements : 2966
Stream size : 31.3 MiB (0%)
Language : Italian
Default : No
Forced : No
Original source medium : Blu-ray

Text #7
ID : 13
ID in the original source medium : 4612 (0x1204)
Format : PGS
Muxing mode : zlib
Codec ID : S_HDMV/PGS
Codec ID/Info : Picture based subtitle format used on BDs/HD-DVDs
Duration : 1 h 43 min
Bit rate : 35.0 kb/s
Frame rate : 0.333 FPS
Count of elements : 2068
Stream size : 25.9 MiB (0%)
Language : Dutch
Default : No
Forced : No
Original source medium : Blu-ray

Text #8
ID : 14
ID in the original source medium : 4613 (0x1205)
Format : PGS
Muxing mode : zlib
Codec ID : S_HDMV/PGS
Codec ID/Info : Picture based subtitle format used on BDs/HD-DVDs
Duration : 19 min 22 s
Bit rate : 1 675 b/s
Frame rate : 0.028 FPS
Count of elements : 32
Stream size : 238 KiB (0%)
Language : English
Default : No
Forced : No
Original source medium : Blu-ray

Text #9
ID : 15
ID in the original source medium : 4614 (0x1206)
Format : PGS
Muxing mode : zlib
Codec ID : S_HDMV/PGS
Codec ID/Info : Picture based subtitle format used on BDs/HD-DVDs
Duration : 1 h 37 min
Bit rate : 565 b/s
Frame rate : 0.008 FPS
Count of elements : 44
Stream size : 403 KiB (0%)
Language : French
Default : No
Forced : No
Original source medium : Blu-ray

Text #10
ID : 16
ID in the original source medium : 4615 (0x1207)
Format : PGS
Muxing mode : zlib
Codec ID : S_HDMV/PGS
Codec ID/Info : Picture based subtitle format used on BDs/HD-DVDs
Duration : 1 h 37 min
Bit rate : 688 b/s
Frame rate : 0.008 FPS
Count of elements : 46
Stream size : 490 KiB (0%)
Language : German
Default : No
Forced : No
Original source medium : Blu-ray

Text #11
ID : 17
ID in the original source medium : 4616 (0x1208)
Format : PGS
Muxing mode : zlib
Codec ID : S_HDMV/PGS
Codec ID/Info : Picture based subtitle format used on BDs/HD-DVDs
Duration : 1 h 37 min
Bit rate : 724 b/s
Frame rate : 0.009 FPS
Count of elements : 50
Stream size : 517 KiB (0%)
Language : Italian
Default : No
Forced : No
Original source medium : Blu-ray

Menu
00:00:00.000 : en:Chapter 01
00:07:12.265 : en:Chapter 02
00:13:54.458 : en:Chapter 03
00:19:12.985 : en:Chapter 04
00:23:44.673 : en:Chapter 05
00:31:39.564 : en:Chapter 06
00:36:49.498 : en:Chapter 07
00:40:25.756 : en:Chapter 08
00:43:05.583 : en:Chapter 09
00:46:51.308 : en:Chapter 10
00:50:38.160 : en:Chapter 11
00:55:08.722 : en:Chapter 12
00:58:03.146 : en:Chapter 13
01:05:08.487 : en:Chapter 14
01:09:40.593 : en:Chapter 15
01:14:56.450 : en:Chapter 16
01:21:05.026 : en:Chapter 17
01:24:07.625 : en:Chapter 18
01:33:20.219 : en:Chapter 19
01:37:16.455 : en:Chapter 20

本帖子中包含更多资源

您需要 登录 才可以下载或查看,没有帐号?立即注册

x
回复

使用道具 举报

0

主题

32

帖子

66

积分

注册会员

Rank: 2

积分
66
发表于 3 天前 | 显示全部楼层
感谢分享
回复

使用道具 举报

您需要登录后才可以回帖 登录 | 立即注册

本版积分规则

QQ|Archiver|手机版|小黑屋|原盘天堂 好多盘 点击这里给我发消息

GMT+8, 2023-1-29 11:07 , Processed in 0.043392 second(s), 25 queries .

Powered by Discuz! X3.4

Copyright © 2001-2021, Tencent Cloud.

快速回复 返回顶部 返回列表