请选择 进入手机版 | 继续访问电脑版
本站Q群713428235【盘盘多】已满,请新会员加原盘天堂新官方QQ群709708625【好多盘】,验证信息填写您在论坛的会员名,不填会员名的无法入群哈,进群后修改您的群名片名字为您在论坛的会员名,请务必修改,否则群成员多了不知道您是哪个会员。

原盘天堂

 找回密码
 立即注册
京东商城当当华为商城名牌时尚折扣网,一个新型的网上购物平台,我们每周为您精选3~4个国际知名品牌,商品折扣低至2折限时限量售卖,商品囊括时装、护肤品、箱包、皮具、配饰、香水等等,琳琅满目。亿格瑞A10硬盘播放器 苏宁易购
查看: 70|回复: 0

4k蓝光原盘bdmv 审判 英语原版 the.trial.1962.2160p.bluray.hevc.dts-hd.ma.2.0[62.88 GB]

[复制链接]

7423

主题

8549

帖子

135万

积分

管理员

Rank: 18Rank: 18Rank: 18Rank: 18Rank: 18

积分
1353705
发表于 2022-12-28 10:56:37 | 显示全部楼层 |阅读模式








◎译  名 审判/The Trial
◎片  名 Le procès
◎年  代 1962
◎产  地 法国/意大利/西德
◎类  别 剧情/悬疑/惊悚
◎语  言 英语
◎上映日期 1962-12-21
◎IMDb评分 7.6/10 from 22054 users
◎IMDb链接 https://www.imdb.com/title/tt0057427/
◎豆瓣评分 8.6/10 from 5547 users
◎豆瓣链接 https://douban.com/subject/1303554/
◎片  长 118分钟
◎导  演 奥逊·威尔斯 Orson Welles
◎编  剧 弗兰茨·卡夫卡 Franz Kafka / 奥逊·威尔斯 Orson Welles
◎主  演 安东尼·博金斯 Anthony Perkins
      阿诺尔多·弗阿 Arnoldo Foà
      杰斯·哈恩 Jess Hahn
      比利·卡恩斯 Billy Kearns
      玛德琳尼·罗宾森 Madeleine Robinson
      让娜·莫罗 Jeanne Moreau
      莫里斯·泰纳克 Maurice Teynac
      苏珊娜·弗罗恩 Suzanne Flon
      拉乌尔·德尔福斯 Raoul Delfosse
      让-克洛德·勒莫勒 Jean-Claude Rémoleux
      Max Buchsbaum Max Buchsbaum
      Max Haufler Max Haufler
      罗密·施耐德 Romy Schneider
      费尔南·勒杜 Fernand Ledoux
      阿基姆·坦米罗夫 Akim Tamiroff
      爱尔莎·玛蒂妮利 Elsa Martinelli
      Thomas Holtzmann Thomas Holtzmann
      沃尔夫·冈赖克曼 Wolfgang Reichmann
      William Chappell William Chappell
      迈克尔·朗斯代尔 Michael Lonsdale
      奥逊·威尔斯 Orson Welles
      居伊·格罗索 Guy Grosso
      Paola Mori Paola Mori

◎简  介

  
  改编自卡夫卡的存在主义小说,以《触目惊心》(1960)成名的安东尼.柏坚斯饰演异境人物「K」,一朝醒来便发觉警察在旁,说他要接受审判,但无人告诉他干犯何罪。为了表示清白,K试图挑战司法制度,但悲剧人物始终逃不过卡夫卡式幽闭梦魇。影片卡士庞大,威尔斯依旧粉墨登场,还有法国 大美人珍.摩露,负责拍摄的是布纽尔的御用摄影师。影片以黑白菲林呈现超现实的封闭时空,威尔斯在影像实验中继续潇洒前行,从庞大的布景和众多的群众演员中,说明了他如何精心筹划出电影的无边国度。威尔斯自言这是他的最佳电影。

DISC INFO:

Disc Title:     The.Trial.1962.2160p.BluRay.HEVC.DTS-HD.MA.2.0-MiXER
Disc Size:      67,521,347,304 bytes
Protection:     AACS2
Extras:         Ultra HD, 50Hz Content
BDInfo:         0.7.5.9 (compatible layout created by DVDFab 12.0.9.2)

PLAYLIST REPORT:

Name:                   00010.MPLS  
Length:                 1:58:52.291 (h:m:s.ms)
Size:                   58,589,067,264 bytes
Total Bitrate:          65.72 Mbps

(*) Indicates included stream hidden by this playlist.

VIDEO:

Codec                   Bitrate             Description   
-----                   -------             -----------   
MPEG-H HEVC Video       52787 kbps          2160p / 24 fps / 16:9 / Main 10 @ Level 5.1 @ High / 4:2:0 / 10 bits / 1000nits / HDR10 / BT.2020
* MPEG-H HEVC Video     3703 kbps (6.55%)   1080p / 24 fps / 16:9 / Main 10 @ Level 5.1 @ High / 4:2:0 / 10 bits / 1000nits / Dolby Vision FEL / BT.2020

AUDIO:

Codec                           Language        Bitrate         Description   
-----                           --------        -------         -----------   
DTS-HD Master Audio             French          1824 kbps       2.0 / 48 kHz / 1824 kbps / 24-bit (DTS Core: 2.0 / 48 kHz / 1509 kbps / 24-bit)
DTS-HD Master Audio             German          1980 kbps       2.0 / 48 kHz / 1980 kbps / 24-bit (DTS Core: 2.0 / 48 kHz / 1509 kbps / 24-bit)
DTS-HD Master Audio             English         1775 kbps       2.0 / 48 kHz / 1775 kbps / 24-bit (DTS Core: 2.0 / 48 kHz / 1509 kbps / 24-bit)

SUBTITLES:

Codec                           Language        Bitrate         Description   
-----                           --------        -------         -----------   
Presentation Graphics           French          38.162 kbps                    
Presentation Graphics           German          41.632 kbps                    
Presentation Graphics           English         54.881 kbps                    
Presentation Graphics           French          0.009 kbps                     
Presentation Graphics           German          0.262 kbps                     
Presentation Graphics           English         0.227 kbps         


Video
ID : 1
ID in the original source medium : 4113 (0x1011)
Format : HEVC
Format/Info : High Efficiency Video Coding
Format profile : Main [email protected]@High
HDR format : Dolby Vision, Version 1.0, dvhe.07.06, BL+EL+RPU, Blu-ray compatible / SMPTE ST 2086, HDR10 compatible
Codec ID : V_MPEGH/ISO/HEVC
Duration : 1 h 58 min
Bit rate : 56.5 Mb/s
Width : 3 840 pixels
Height : 2 160 pixels
Display aspect ratio : 16:9
Frame rate mode : Constant
Frame rate : 24.000 FPS
Color space : YUV
Chroma subsampling : 4:2:0 (Type 2)
Bit depth : 10 bits
Bits/(Pixel*Frame) : 0.284
Stream size : 46.9 GiB (90%)
Language : English
Default : No
Forced : No
Color range : Limited
Color primaries : BT.2020
Transfer characteristics : PQ
Matrix coefficients : BT.2020 non-constant
Mastering display color primaries : BT.2020
Mastering display luminance : min: 0.0001 cd/m2, max: 1000 cd/m2
Original source medium : Blu-ray

Audio #1
ID : 2
ID in the original source medium : 4354 (0x1102)
Format : DTS XLL
Format/Info : Digital Theater Systems
Commercial name : DTS-HD Master Audio
Codec ID : A_DTS
Duration : 1 h 58 min
Bit rate mode : Variable
Bit rate : 1 775 kb/s
Channel(s) : 2 channels
Channel layout : L R
Sampling rate : 48.0 kHz
Frame rate : 93.750 FPS (512 SPF)
Bit depth : 24 bits
Compression mode : Lossless
Stream size : 1.47 GiB (3%)
Title : DTS-HD MA 2.0
Language : English
Default : Yes
Forced : No
Original source medium : Blu-ray

Audio #2
ID : 3
Format : AC-3
Format/Info : Audio Coding 3
Commercial name : Dolby Digital
Codec ID : A_AC3
Duration : 1 h 58 min
Bit rate mode : Constant
Bit rate : 640 kb/s
Channel(s) : 2 channels
Channel layout : L R
Sampling rate : 48.0 kHz
Frame rate : 31.250 FPS (1536 SPF)
Compression mode : Lossy
Stream size : 544 MiB (1%)
Title : DD 2.0
Language : English
Service kind : Complete Main
Default : No
Forced : No

Audio #3
ID : 4
ID in the original source medium : 4352 (0x1100)
Format : DTS XLL
Format/Info : Digital Theater Systems
Commercial name : DTS-HD Master Audio
Codec ID : A_DTS
Duration : 1 h 58 min
Bit rate mode : Variable
Bit rate : 1 824 kb/s
Channel(s) : 2 channels
Channel layout : L R
Sampling rate : 48.0 kHz
Frame rate : 93.750 FPS (512 SPF)
Bit depth : 24 bits
Compression mode : Lossless
Stream size : 1.51 GiB (3%)
Title : DTS-HD MA 2.0
Language : French
Default : No
Forced : No
Original source medium : Blu-ray

Audio #4
ID : 5
ID in the original source medium : 4353 (0x1101)
Format : DTS XLL
Format/Info : Digital Theater Systems
Commercial name : DTS-HD Master Audio
Codec ID : A_DTS
Duration : 1 h 58 min
Bit rate mode : Variable
Bit rate : 1 980 kb/s
Channel(s) : 2 channels
Channel layout : L R
Sampling rate : 48.0 kHz
Frame rate : 93.750 FPS (512 SPF)
Bit depth : 24 bits
Compression mode : Lossless
Stream size : 1.64 GiB (3%)
Title : DTS-HD MA 2.0
Language : German
Default : No
Forced : No
Original source medium : Blu-ray

Text #1
ID : 6
Format : UTF-8
Codec ID : S_TEXT/UTF8
Codec ID/Info : UTF-8 Plain Text
Duration : 1 h 58 min
Bit rate : 89 b/s
Frame rate : 0.302 FPS
Count of elements : 2146
Stream size : 77.1 KiB (0%)
Language : English
Default : Yes
Forced : No

Text #2
ID : 7
Format : UTF-8
Codec ID : S_TEXT/UTF8
Codec ID/Info : UTF-8 Plain Text
Duration : 1 h 58 min
Bit rate : 90 b/s
Frame rate : 0.313 FPS
Count of elements : 2222
Stream size : 78.5 KiB (0%)
Title : SDH
Language : English
Default : No
Forced : No

Text #3
ID : 8
ID in the original source medium : 4768 (0x12A0)
Format : PGS
Muxing mode : zlib
Codec ID : S_HDMV/PGS
Codec ID/Info : Picture based subtitle format used on BDs/HD-DVDs
Duration : 1 h 57 min
Bit rate : 38.5 kb/s
Frame rate : 0.459 FPS
Count of elements : 3246
Stream size : 32.4 MiB (0%)
Language : French
Default : No
Forced : No
Original source medium : Blu-ray

Text #4
ID : 9
ID in the original source medium : 4769 (0x12A1)
Format : PGS
Muxing mode : zlib
Codec ID : S_HDMV/PGS
Codec ID/Info : Picture based subtitle format used on BDs/HD-DVDs
Duration : 1 h 58 min
Bit rate : 41.9 kb/s
Frame rate : 0.488 FPS
Count of elements : 3460
Stream size : 35.4 MiB (0%)
Language : German
Default : No
Forced : No
Original source medium : Blu-ray

Text #5
ID : 10
ID in the original source medium : 4770 (0x12A2)
Format : PGS
Muxing mode : zlib
Codec ID : S_HDMV/PGS
Codec ID/Info : Picture based subtitle format used on BDs/HD-DVDs
Duration : 1 h 58 min
Bit rate : 55.2 kb/s
Frame rate : 0.630 FPS
Count of elements : 4468
Stream size : 46.7 MiB (0%)
Language : English
Default : No
Forced : No
Original source medium : Blu-ray

Text #6
ID : 11
ID in the original source medium : 4771 (0x12A3)
Format : PGS
Muxing mode : zlib
Codec ID : S_HDMV/PGS
Codec ID/Info : Picture based subtitle format used on BDs/HD-DVDs
Duration : 6 s 271 ms
Bit rate : 10.0 kb/s
Frame rate : 0.319 FPS
Count of elements : 2
Stream size : 7.67 KiB (0%)
Language : French
Default : No
Forced : No
Original source medium : Blu-ray

Text #7
ID : 12
ID in the original source medium : 4772 (0x12A4)
Format : PGS
Muxing mode : zlib
Codec ID : S_HDMV/PGS
Codec ID/Info : Picture based subtitle format used on BDs/HD-DVDs
Duration : 34 s 604 ms
Bit rate : 54.0 kb/s
Frame rate : 0.462 FPS
Count of elements : 16
Stream size : 228 KiB (0%)
Language : German
Default : No
Forced : No
Original source medium : Blu-ray

Text #8
ID : 13
ID in the original source medium : 4773 (0x12A5)
Format : PGS
Muxing mode : zlib
Codec ID : S_HDMV/PGS
Codec ID/Info : Picture based subtitle format used on BDs/HD-DVDs
Duration : 19 s 313 ms
Bit rate : 83.7 kb/s
Frame rate : 0.725 FPS
Count of elements : 14
Stream size : 197 KiB (0%)
Language : English
Default : No
Forced : No
Original source medium : Blu-ray

Menu
00:00:00.000 : en:Chapter 01
00:09:30.375 : en:Chapter 02
00:19:13.208 : en:Chapter 03
00:29:21.583 : en:Chapter 04
00:40:32.875 : en:Chapter 05
00:50:04.916 : en:Chapter 06
01:01:09.000 : en:Chapter 07
01:09:48.541 : en:Chapter 08
01:19:33.083 : en:Chapter 09
01:30:01.250 : en:Chapter 10
01:38:49.041 : en:Chapter 11
01:48:21.541 : en:Chapter 12

本帖子中包含更多资源

您需要 登录 才可以下载或查看,没有帐号?立即注册

x
回复

使用道具 举报

您需要登录后才可以回帖 登录 | 立即注册

本版积分规则

QQ|Archiver|手机版|小黑屋|原盘天堂 好多盘 点击这里给我发消息

GMT+8, 2023-1-29 11:12 , Processed in 0.040431 second(s), 24 queries .

Powered by Discuz! X3.4

Copyright © 2001-2021, Tencent Cloud.

快速回复 返回顶部 返回列表