请选择 进入手机版 | 继续访问电脑版
本站Q群713428235【盘盘多】已满,请新会员加原盘天堂新官方QQ群709708625【好多盘】,验证信息填写您在论坛的会员名,不填会员名的无法入群哈,进群后修改您的群名片名字为您在论坛的会员名,请务必修改,否则群成员多了不知道您是哪个会员。

原盘天堂

 找回密码
 立即注册
京东商城当当华为商城名牌时尚折扣网,一个新型的网上购物平台,我们每周为您精选3~4个国际知名品牌,商品折扣低至2折限时限量售卖,商品囊括时装、护肤品、箱包、皮具、配饰、香水等等,琳琅满目。亿格瑞A10硬盘播放器 苏宁易购
查看: 92|回复: 0

4k蓝光原盘bdmv 侠盗王子罗宾汉 加长版、剧场版二合一 英语原版 robin.hood.prince.of.thieves.1991.2in1.2160p.bluray.hevc.dts-hd.ma.5.1[88.58 GB]

[复制链接]

7423

主题

8549

帖子

135万

积分

管理员

Rank: 18Rank: 18Rank: 18Rank: 18Rank: 18

积分
1353705
发表于 2022-12-28 10:25:29 | 显示全部楼层 |阅读模式








◎译  名 侠盗王子罗宾汉/大盗罗宾汉/罗宾汉:盗贼王子/奇云高士拿之侠盗罗宾汉
◎片  名 Robin Hood: Prince of Thieves
◎年  代 1991
◎产  地 美国/英国
◎类  别 剧情/动作/冒险
◎语  言 英语/阿拉伯语
◎上映日期 1991-06-14(美国)
◎IMDb评分 6.9/10 from 196202 users
◎IMDb链接 https://www.imdb.com/title/tt0102798/
◎豆瓣评分 7.2/10 from 5422 users
◎豆瓣链接 https://douban.com/subject/1294111/
◎片  长 143分钟
◎导  演 凯文·雷诺兹 Kevin Reynolds
◎编  剧 潘·丹萨姆 Pen Densham / 约翰·沃森 John Watson
◎主  演 凯文·科斯特纳 Kevin Costner
      摩根·弗里曼 Morgan Freeman
      玛丽·伊丽莎白·马斯特兰托尼奥 Mary Elizabeth Mastrantonio
      克里斯蒂安·史莱特 Christian Slater
      艾伦·瑞克曼 Alan Rickman
      杰拉尔丁·麦克伊万 Geraldine McEwan
      迈克尔·麦克沙恩 Michael McShane
      布耐恩·布莱塞得 Brian Blessed
      迈克尔·维克特 Michael Wincott
      尼克·布莱波尔 Nick Brimble
      Daniel Newman Daniel Newman
      Daniel Peacock Daniel Peacock
      沃尔特·斯帕罗 Walter Sparrow
      Harold Innocent Harold Innocent
      杰克·瓦尔德 Jack Wild
      Marc Zuber Marc Zuber
      梅丽娜·肯德尔 Merelina Kendall
      Jimmy Gardner Jimmy Gardner
      John Hallam John Hallam
      道格拉斯·布莱克威尔 Douglas Blackwell
      帕特·罗奇 Pat Roach
      Derek Deadman Derek Deadman
      霍华德·卢刘易斯 Howard Lew Lewis
      克里斯托弗·亚当森 Christopher Adamson
      布莱恩·亚当斯 Bryan Adams
      David Bowles David Bowles
      肖恩·康纳利 Sean Connery
      Bill Payne Bill Payne
      Derek Pykett Derek Pykett
      Graham Riddell Graham Riddell

◎简  介

  
  故事发生在十字军东征时期,罗宾(凯文·科斯特纳 Kevin Costner 饰)身陷囹圄,带着两个狱友,罗宾杀死了警卫,成功越狱。途中,一个狱友不幸死去,临终时,他将遗物交给罗宾,托付他务必将此带给他的妹妹玛利亚(玛丽·伊丽莎白·马斯特兰托尼奥 Mary Elizabeth Mastrantonio 饰),而另一位狱友亚森(摩根·弗里曼 Morgan Freeman 饰)则成为了罗宾最坚定忠诚的战友。
  
  一次偶然中,落难的罗宾在森林中遭遇了一伙由穷人所组成的强盗,罗宾凭借着自己的勇气和智慧感化了他们,并且彻底放弃了自己原有的身份,和穷人们一起奋战,对抗残暴的统治者,而受到打击的统治者们当然不会对此坐视不管,一场恶战即将拉开序幕。
  

◎获奖情况

  第64届奥斯卡金像奖 (1992)
  最佳原创歌曲(提名) 迈克尔·凯曼 / 布莱恩·亚当斯 / 罗伯特·约翰·兰格

EXTENDED:
DISC INFO:

Disc Title:     Robin.Hood.Prince.of.Thieves.1991.2in1.2160p.BluRay.HEVC.DTS-HD.MA.5.1-HGN
Disc Size:      95,090,229,453 bytes
Protection:     AACS2
Extras:         Ultra HD
BDInfo:         0.7.5.9 (compatible layout created by DVDFab 12.0.9.2)

PLAYLIST REPORT:

Name:                   00101.MPLS  
Length:                 2:35:02.209 (h:m:s.ms)
Size:                   85,051,355,136 bytes
Total Bitrate:          73.15 Mbps

(*) Indicates included stream hidden by this playlist.

VIDEO:

Codec                   Bitrate             Description   
-----                   -------             -----------   
MPEG-H HEVC Video       62639 kbps          2160p / 23.976 fps / 16:9 / Main 10 @ Level 5.1 @ High / 4:2:0 / 10 bits / 1000nits / HDR10 / BT.2020
* MPEG-H HEVC Video     76 kbps (0.12%)     1080p / 23.976 fps / 16:9 / Main 10 @ Level 5.1 @ High / 4:2:0 / 10 bits / 1000nits / Dolby Vision MEL / BT.2020

AUDIO:

Codec                           Language        Bitrate         Description   
-----                           --------        -------         -----------   
DTS-HD Master Audio             English         2005 kbps       5.1 / 48 kHz / 2005 kbps / 24-bit (DTS Core: 5.1 / 48 kHz / 768 kbps / 24-bit)
DTS-HD Master Audio             English         1050 kbps       2.0 / 48 kHz / 1050 kbps / 24-bit (DTS Core: 2.0 / 48 kHz / 768 kbps / 24-bit)
DTS Audio                       English         256 kbps        2.0 / 48 kHz / 256 kbps / 16-bit
DTS Audio                       English         256 kbps        2.0 / 48 kHz / 256 kbps / 16-bit
* DTS-HD Master Audio           English         2033 kbps       5.1 / 48 kHz / 2033 kbps / 24-bit (DTS Core: 5.1 / 48 kHz / 768 kbps / 24-bit)
* DTS-HD Master Audio           English         1053 kbps       2.0 / 48 kHz / 1053 kbps / 24-bit (DTS Core: 2.0 / 48 kHz / 768 kbps / 24-bit)

SUBTITLES:

Codec                           Language        Bitrate         Description   
-----                           --------        -------         -----------   
Presentation Graphics           English         29.426 kbps                    


THEATRICAL:
DISC INFO:

Disc Title:     Robin.Hood.Prince.of.Thieves.1991.2in1.2160p.BluRay.HEVC.DTS-HD.MA.5.1-HGN
Disc Size:      95,090,229,453 bytes
Protection:     AACS2
Extras:         Ultra HD
BDInfo:         0.7.5.9 (compatible layout created by DVDFab 12.0.9.2)

PLAYLIST REPORT:

Name:                   00100.MPLS  
Length:                 2:23:12.750 (h:m:s.ms)
Size:                   78,636,693,504 bytes
Total Bitrate:          73.21 Mbps

(*) Indicates included stream hidden by this playlist.

VIDEO:

Codec                   Bitrate             Description   
-----                   -------             -----------   
MPEG-H HEVC Video       62693 kbps          2160p / 23.976 fps / 16:9 / Main 10 @ Level 5.1 @ High / 4:2:0 / 10 bits / 1000nits / HDR10 / BT.2020
* MPEG-H HEVC Video     76 kbps (0.12%)     1080p / 23.976 fps / 16:9 / Main 10 @ Level 5.1 @ High / 4:2:0 / 10 bits / 1000nits / Dolby Vision MEL / BT.2020

AUDIO:

Codec                           Language        Bitrate         Description   
-----                           --------        -------         -----------   
DTS-HD Master Audio             English         2026 kbps       5.1 / 48 kHz / 2026 kbps / 24-bit (DTS Core: 5.1 / 48 kHz / 768 kbps / 24-bit)
DTS-HD Master Audio             English         1055 kbps       2.0 / 48 kHz / 1055 kbps / 24-bit (DTS Core: 2.0 / 48 kHz / 768 kbps / 24-bit)
* DTS-HD Master Audio           English         2024 kbps       5.1 / 48 kHz / 2024 kbps / 24-bit (DTS Core: 5.1 / 48 kHz / 768 kbps / 24-bit)
* DTS-HD Master Audio           English         1053 kbps       2.0 / 48 kHz / 1053 kbps / 24-bit (DTS Core: 2.0 / 48 kHz / 768 kbps / 24-bit)
* DTS Audio                     English         256 kbps        2.0 / 48 kHz / 256 kbps / 16-bit
* DTS Audio                     English         256 kbps        2.0 / 48 kHz / 256 kbps / 16-bit

SUBTITLES:

Codec                           Language        Bitrate         Description   
-----                           --------        -------         -----------   
Presentation Graphics           English         29.806 kbps                    


Video
ID : 1
ID in the original source medium : 4113 (0x1011)
Format : HEVC
Format/Info : High Efficiency Video Coding
Format profile : Main [email protected]@High
HDR format : Dolby Vision, Version 1.0, dvhe.07.06, BL+EL+RPU, Blu-ray compatible / SMPTE ST 2086, HDR10 compatible
Codec ID : V_MPEGH/ISO/HEVC
Duration : 2 h 35 min
Bit rate : 62.7 Mb/s
Width : 3 840 pixels
Height : 2 160 pixels
Display aspect ratio : 16:9
Frame rate mode : Constant
Frame rate : 23.976 (24000/1001) FPS
Color space : YUV
Chroma subsampling : 4:2:0 (Type 2)
Bit depth : 10 bits
Bits/(Pixel*Frame) : 0.315
Stream size : 67.9 GiB (94%)
Language : English
Default : No
Forced : No
Color range : Limited
Color primaries : BT.2020
Transfer characteristics : PQ
Matrix coefficients : BT.2020 non-constant
Mastering display color primaries : BT.2020
Mastering display luminance : min: 0.0001 cd/m2, max: 1000 cd/m2
Original source medium : Blu-ray

Audio #1
ID : 2
ID in the original source medium : 4352 (0x1100)
Format : DTS XLL
Format/Info : Digital Theater Systems
Commercial name : DTS-HD Master Audio
Codec ID : A_DTS
Duration : 2 h 35 min
Bit rate mode : Variable
Bit rate : 2 005 kb/s
Channel(s) : 6 channels
Channel layout : C L R Ls Rs LFE
Sampling rate : 48.0 kHz
Frame rate : 93.750 FPS (512 SPF)
Bit depth : 24 bits
Compression mode : Lossless
Stream size : 2.17 GiB (3%)
Title : DTS-HD MA 5.1
Language : English
Default : Yes
Forced : No
Original source medium : Blu-ray

Audio #2
ID : 3
Format : AC-3
Format/Info : Audio Coding 3
Commercial name : Dolby Digital
Codec ID : A_AC3
Duration : 2 h 35 min
Bit rate mode : Constant
Bit rate : 640 kb/s
Channel(s) : 6 channels
Channel layout : L R C LFE Ls Rs
Sampling rate : 48.0 kHz
Frame rate : 31.250 FPS (1536 SPF)
Compression mode : Lossy
Stream size : 710 MiB (1%)
Title : DD 5.1
Language : English
Service kind : Complete Main
Default : No
Forced : No

Audio #3
ID : 4
ID in the original source medium : 4353 (0x1101)
Format : DTS XLL
Format/Info : Digital Theater Systems
Commercial name : DTS-HD Master Audio
Codec ID : A_DTS
Duration : 2 h 35 min
Bit rate mode : Variable
Bit rate : 1 050 kb/s
Channel(s) : 2 channels
Channel layout : L R
Sampling rate : 48.0 kHz
Frame rate : 93.750 FPS (512 SPF)
Bit depth : 24 bits
Compression mode : Lossless
Stream size : 1.14 GiB (2%)
Title : DTS-HD MA 2.0
Language : English
Default : No
Forced : No
Original source medium : Blu-ray

Audio #4
ID : 5
ID in the original source medium : 4356 (0x1104)
Format : DTS
Format/Info : Digital Theater Systems
Codec ID : A_DTS
Duration : 2 h 35 min
Bit rate mode : Constant
Bit rate : 255 kb/s
Channel(s) : 2 channels
Channel layout : L R
Sampling rate : 48.0 kHz
Frame rate : 93.750 FPS (512 SPF)
Bit depth : 16 bits
Compression mode : Lossy
Stream size : 283 MiB (0%)
Title : DTS 2.0
Language : English
Default : No
Forced : No
Original source medium : Blu-ray

Audio #5
ID : 6
ID in the original source medium : 4357 (0x1105)
Format : DTS
Format/Info : Digital Theater Systems
Codec ID : A_DTS
Duration : 2 h 35 min
Bit rate mode : Constant
Bit rate : 255 kb/s
Channel(s) : 2 channels
Channel layout : L R
Sampling rate : 48.0 kHz
Frame rate : 93.750 FPS (512 SPF)
Bit depth : 16 bits
Compression mode : Lossy
Stream size : 283 MiB (0%)
Title : DTS 2.0
Language : English
Default : No
Forced : No
Original source medium : Blu-ray

Text #1
ID : 7
Format : UTF-8
Codec ID : S_TEXT/UTF8
Codec ID/Info : UTF-8 Plain Text
Duration : 2 h 31 min
Bit rate : 43 b/s
Frame rate : 0.166 FPS
Count of elements : 1511
Stream size : 48.3 KiB (0%)
Language : English
Default : Yes
Forced : No

Text #2
ID : 8
Format : UTF-8
Codec ID : S_TEXT/UTF8
Codec ID/Info : UTF-8 Plain Text
Duration : 2 h 32 min
Bit rate : 45 b/s
Frame rate : 0.174 FPS
Count of elements : 1584
Stream size : 50.8 KiB (0%)
Title : SDH
Language : English
Default : No
Forced : No

Text #3
ID : 9
ID in the original source medium : 4768 (0x12A0)
Format : PGS
Muxing mode : zlib
Codec ID : S_HDMV/PGS
Codec ID/Info : Picture based subtitle format used on BDs/HD-DVDs
Duration : 2 h 32 min
Bit rate : 30.0 kb/s
Frame rate : 0.350 FPS
Count of elements : 3192
Stream size : 32.6 MiB (0%)
Language : English
Default : No
Forced : No
Original source medium : Blu-ray

Menu
00:00:00.000 : en:Chapter 01
00:10:59.408 : en:Chapter 02
00:23:46.591 : en:Chapter 03
00:31:14.497 : en:Chapter 04
00:44:34.463 : en:Chapter 05
00:58:15.992 : en:Chapter 06
01:07:20.661 : en:Chapter 07
01:18:48.765 : en:Chapter 08
01:29:39.040 : en:Chapter 09
01:37:29.218 : en:Chapter 10
01:43:54.311 : en:Chapter 11
01:52:09.556 : en:Chapter 12
02:04:37.553 : en:Chapter 13
02:13:01.431 : en:Chapter 14
02:22:33.962 : en:Chapter 15
02:28:10.172 : en:Chapter 16

本帖子中包含更多资源

您需要 登录 才可以下载或查看,没有帐号?立即注册

x
回复

使用道具 举报

您需要登录后才可以回帖 登录 | 立即注册

本版积分规则

QQ|Archiver|手机版|小黑屋|原盘天堂 好多盘 点击这里给我发消息

GMT+8, 2023-1-29 10:12 , Processed in 0.042023 second(s), 24 queries .

Powered by Discuz! X3.4

Copyright © 2001-2021, Tencent Cloud.

快速回复 返回顶部 返回列表