请选择 进入手机版 | 继续访问电脑版
本站Q群713428235【盘盘多】已满,请新会员加原盘天堂新官方QQ群709708625【好多盘】,验证信息填写您在论坛的会员名,不填会员名的无法入群哈,进群后修改您的群名片名字为您在论坛的会员名,请务必修改,否则群成员多了不知道您是哪个会员。

原盘天堂

 找回密码
 立即注册
京东商城当当华为商城名牌时尚折扣网,一个新型的网上购物平台,我们每周为您精选3~4个国际知名品牌,商品折扣低至2折限时限量售卖,商品囊括时装、护肤品、箱包、皮具、配饰、香水等等,琳琅满目。亿格瑞A10硬盘播放器 苏宁易购
查看: 80|回复: 0

2d蓝光原盘bdmv 老人 英语原版 old.man.2022.1080p.bluray.avc.dts-hd.ma.5.1[18.98 GB]

[复制链接]

7423

主题

8549

帖子

135万

积分

管理员

Rank: 18Rank: 18Rank: 18Rank: 18Rank: 18

积分
1353705
发表于 2022-12-28 10:05:38 | 显示全部楼层 |阅读模式








◎译  名 老人
◎片  名 Old Man
◎年  代 2022
◎产  地 美国
◎类  别 惊悚
◎语  言 英语
◎上映日期 2022-10-14(美国网络)
◎IMDb评分 4.8/10 from 1677 users
◎IMDb链接 https://www.imdb.com/title/tt13456976/
◎豆瓣评分 4.4/10 from 246 users
◎豆瓣链接 https://douban.com/subject/35251390/
◎片  长 97分钟
◎导  演 拉齐·马凯 Lucky McKee
◎主  演 史蒂芬·朗 Stephen Lang
      马克·塞特 Marc Senter
      帕奇·德拉奇 Patch Darragh

◎简  介

  
  史蒂芬·朗将主演动作惊悚片[老人](Old Man,暂译)。拉齐·马凯([五月魔女])执导,Joel Veach操刀剧本,卡司还包括马克·塞特([红白蓝])。影片讲述了一个迷路的徒步旅行者(塞特饰)偶然发现了一个古怪而隐居的老人(朗饰)的小屋。两人一开始亲切的对话很快就变成了危险的对话,因为很明显,他们中的一个或两个人可能隐藏着一个可怕的秘密。该片将于明年1月在纽约开拍。



DISC INFO:

Disc Title:     Old.Man.2022.1080p.BluRay.AVC.DTS-HD.MA.5.1-FGT
Disc Size:      20,381,795,375 bytes
Protection:     AACS
BDInfo:         0.7.5.9 (compatible layout created by DVDFab 12.0.9.2)

PLAYLIST REPORT:

Name:                   00005.MPLS  
Length:                 1:37:34.390 (h:m:s.ms)
Size:                   16,970,975,232 bytes
Total Bitrate:          23.19 Mbps

VIDEO:

Codec                   Bitrate             Description   
-----                   -------             -----------   
MPEG-4 AVC Video        20000 kbps          1080p / 23.976 fps / 16:9 / High Profile 4.1

AUDIO:

Codec                           Language        Bitrate         Description   
-----                           --------        -------         -----------   
DTS-HD Master Audio             English         1843 kbps       5.1 / 48 kHz / 1843 kbps / 16-bit (DTS Core: 5.1 / 48 kHz / 1509 kbps / 16-bit)

SUBTITLES:

Codec                           Language        Bitrate         Description   
-----                           --------        -------         -----------   
Presentation Graphics           English         43.116 kbps                    
Presentation Graphics           Spanish         33.108 kbps   


Video
ID : 1
ID in the original source medium : 4113 (0x1011)
Format : AVC
Format/Info : Advanced Video Codec
Format profile : [email protected]
Format settings : CABAC / 4 Ref Frames
Format settings, CABAC : Yes
Format settings, Reference frames : 4 frames
Codec ID : V_MPEG4/ISO/AVC
Duration : 1 h 37 min
Bit rate mode : Variable
Bit rate : 20.0 Mb/s
Maximum bit rate : 38.0 Mb/s
Width : 1 920 pixels
Height : 1 080 pixels
Display aspect ratio : 16:9
Frame rate mode : Constant
Frame rate : 23.976 (24000/1001) FPS
Color space : YUV
Chroma subsampling : 4:2:0
Bit depth : 8 bits
Scan type : Progressive
Bits/(Pixel*Frame) : 0.401
Stream size : 13.6 GiB (91%)
Language : English
Default : No
Forced : No
Original source medium : Blu-ray

Audio
ID : 2
ID in the original source medium : 4352 (0x1100)
Format : DTS XLL
Format/Info : Digital Theater Systems
Commercial name : DTS-HD Master Audio
Codec ID : A_DTS
Duration : 1 h 37 min
Bit rate mode : Variable
Bit rate : 1 843 kb/s
Channel(s) : 6 channels
Channel layout : C L R Ls Rs LFE
Sampling rate : 48.0 kHz
Frame rate : 93.750 FPS (512 SPF)
Bit depth : 16 bits
Compression mode : Lossless
Stream size : 1.26 GiB (8%)
Title : DTS-HD MA 5.1
Language : English
Default : Yes
Forced : No
Original source medium : Blu-ray

Text #1
ID : 3
Format : UTF-8
Codec ID : S_TEXT/UTF8
Codec ID/Info : UTF-8 Plain Text
Duration : 1 h 33 min
Bit rate : 57 b/s
Frame rate : 0.249 FPS
Count of elements : 1390
Stream size : 39.0 KiB (0%)
Language : English
Default : Yes
Forced : No

Text #2
ID : 4
Format : UTF-8
Codec ID : S_TEXT/UTF8
Codec ID/Info : UTF-8 Plain Text
Duration : 1 h 36 min
Bit rate : 58 b/s
Frame rate : 0.262 FPS
Count of elements : 1513
Stream size : 41.5 KiB (0%)
Title : SDH
Language : English
Default : No
Forced : No

Text #3
ID : 5
ID in the original source medium : 4608 (0x1200)
Format : PGS
Muxing mode : zlib
Codec ID : S_HDMV/PGS
Codec ID/Info : Picture based subtitle format used on BDs/HD-DVDs
Duration : 1 h 36 min
Bit rate : 43.7 kb/s
Frame rate : 0.530 FPS
Count of elements : 3064
Stream size : 30.1 MiB (0%)
Language : English
Default : No
Forced : No
Original source medium : Blu-ray

Text #4
ID : 6
ID in the original source medium : 4609 (0x1201)
Format : PGS
Muxing mode : zlib
Codec ID : S_HDMV/PGS
Codec ID/Info : Picture based subtitle format used on BDs/HD-DVDs
Duration : 1 h 35 min
Bit rate : 33.7 kb/s
Frame rate : 0.422 FPS
Count of elements : 2426
Stream size : 23.1 MiB (0%)
Language : Spanish
Default : No
Forced : No
Original source medium : Blu-ray

Menu
00:00:00.000 : en:Chapter 01
00:09:41.497 : en:Chapter 02
00:18:51.755 : en:Chapter 03
00:29:47.285 : en:Chapter 04
00:40:33.097 : en:Chapter 05
00:53:39.424 : en:Chapter 06
01:05:07.778 : en:Chapter 07
01:16:55.777 : en:Chapter 08
01:24:58.927 : en:Chapter 09

本帖子中包含更多资源

您需要 登录 才可以下载或查看,没有帐号?立即注册

x
回复

使用道具 举报

您需要登录后才可以回帖 登录 | 立即注册

本版积分规则

QQ|Archiver|手机版|小黑屋|原盘天堂 好多盘 点击这里给我发消息

GMT+8, 2023-1-29 11:17 , Processed in 0.042285 second(s), 25 queries .

Powered by Discuz! X3.4

Copyright © 2001-2021, Tencent Cloud.

快速回复 返回顶部 返回列表