请选择 进入手机版 | 继续访问电脑版
本站Q群713428235【盘盘多】已满,请新会员加原盘天堂新官方QQ群709708625【好多盘】,验证信息填写您在论坛的会员名,不填会员名的无法入群哈,进群后修改您的群名片名字为您在论坛的会员名,请务必修改,否则群成员多了不知道您是哪个会员。

原盘天堂

 找回密码
 立即注册
京东商城当当华为商城名牌时尚折扣网,一个新型的网上购物平台,我们每周为您精选3~4个国际知名品牌,商品折扣低至2折限时限量售卖,商品囊括时装、护肤品、箱包、皮具、配饰、香水等等,琳琅满目。亿格瑞A10硬盘播放器 苏宁易购
查看: 74|回复: 0

2d蓝光原盘bdmv 罪犯艾米丽 英语原版 emily.the.criminal.2022.1080p.bluray.avc.dts-hd.ma.5.1[23.03 GB]

[复制链接]

7423

主题

8549

帖子

135万

积分

管理员

Rank: 18Rank: 18Rank: 18Rank: 18Rank: 18

积分
1353705
发表于 2022-12-28 09:56:18 | 显示全部楼层 |阅读模式








◎译  名 罪犯艾米丽
◎片  名 Emily the Criminal
◎年  代 2022
◎产  地 美国
◎类  别 剧情/惊悚/犯罪
◎语  言 英语
◎上映日期 2022-01-24(圣丹斯电影节)/2022-06-08(澳大利亚悉尼电影节)/2022-08-12(美国)
◎IMDb评分 6.7/10 from 25420 users
◎IMDb链接 https://www.imdb.com/title/tt15255876/
◎豆瓣评分 6.2/10 from 3328 users
◎豆瓣链接 https://douban.com/subject/35694784/
◎片  长 93分钟
◎导  演 约翰·巴顿·福特 John Patton Ford
◎编  剧 约翰·巴顿·福特 John Patton Ford
◎主  演 奥布瑞·普拉扎 Aubrey Plaza
      西奥·罗西 Theo Rossi
      乔纳森阿维多瑞 Jonathan Avigdori
      贝尔纳多·巴迪罗 Bernardo Badillo
      吉娜·格申 Gina Gershon
      梅歌林·艾奇坤沃克 Megalyn Echikunwoke
      约翰·比灵斯列 John Billingsley
      约翰·波西 John Posey
      克雷格·斯塔克 Craig Stark
      罗曼·米蒂齐扬 Roman Mitichyan
      杰克·托帕利安 Jack Topalian
      维克托·沃尔夫 Victor Wolf
      托马斯·派斯 Tomas Pais
      Janice Sonia Lee Janice Sonia Lee
      卫斯理·韩 Wesley Han

◎简  介

  
  当犯罪抛出抛出榄枝于Emily,她会如何做选择呢?
  

◎获奖情况

  第32届哥谭独立电影奖 (2022)
  最佳主角演出(提名) 奥布瑞·普拉扎

DISC INFO:

Disc Title:     Emily.the.Criminal.2022.1080p.BluRay.AVC.DTS-HD.MA.5.1-FGT
Disc Size:      24,726,492,762 bytes
Protection:     AACS
BDInfo:         0.7.5.9 (compatible layout created by DVDFab 12.0.9.2)

PLAYLIST REPORT:

Name:                   00001.MPLS  
Length:                 1:36:52.264 (h:m:s.ms)
Size:                   24,675,858,432 bytes
Total Bitrate:          33.96 Mbps

VIDEO:

Codec                   Bitrate             Description   
-----                   -------             -----------   
MPEG-4 AVC Video        26483 kbps          1080p / 23.976 fps / 16:9 / High Profile 4.1

AUDIO:

Codec                           Language        Bitrate         Description   
-----                           --------        -------         -----------   
DTS-HD Master Audio             English         3511 kbps       5.1 / 48 kHz / 3511 kbps / 24-bit (DTS Core: 5.1 / 48 kHz / 1509 kbps / 24-bit)
DTS-HD Master Audio             English         2004 kbps       2.0 / 48 kHz / 2004 kbps / 24-bit (DTS Core: 2.0 / 48 kHz / 1509 kbps / 24-bit)

SUBTITLES:

Codec                           Language        Bitrate         Description   
-----                           --------        -------         -----------   
Presentation Graphics           English         29.745 kbps     

Video
ID : 1
ID in the original source medium : 4113 (0x1011)
Format : AVC
Format/Info : Advanced Video Codec
Format profile : [email protected]
Format settings : CABAC / 4 Ref Frames
Format settings, CABAC : Yes
Format settings, Reference frames : 4 frames
Codec ID : V_MPEG4/ISO/AVC
Duration : 1 h 36 min
Bit rate mode : Variable
Bit rate : 26.3 Mb/s
Maximum bit rate : 38.0 Mb/s
Width : 1 920 pixels
Height : 1 080 pixels
Display aspect ratio : 16:9
Frame rate mode : Constant
Frame rate : 23.976 (24000/1001) FPS
Color space : YUV
Chroma subsampling : 4:2:0
Bit depth : 8 bits
Scan type : Progressive
Bits/(Pixel*Frame) : 0.530
Stream size : 17.8 GiB (83%)
Language : English
Default : No
Forced : No
Original source medium : Blu-ray

Audio #1
ID : 2
ID in the original source medium : 4352 (0x1100)
Format : DTS XLL
Format/Info : Digital Theater Systems
Commercial name : DTS-HD Master Audio
Codec ID : A_DTS
Duration : 1 h 36 min
Bit rate mode : Variable
Bit rate : 3 511 kb/s
Channel(s) : 6 channels
Channel layout : C L R Ls Rs LFE
Sampling rate : 48.0 kHz
Frame rate : 93.750 FPS (512 SPF)
Bit depth : 24 bits
Compression mode : Lossless
Stream size : 2.38 GiB (11%)
Title : DTS-HD MA 5.1
Language : English
Default : Yes
Forced : No
Original source medium : Blu-ray

Audio #2
ID : 3
ID in the original source medium : 4353 (0x1101)
Format : DTS XLL
Format/Info : Digital Theater Systems
Commercial name : DTS-HD Master Audio
Codec ID : A_DTS
Duration : 1 h 36 min
Bit rate mode : Variable
Bit rate : 2 004 kb/s
Channel(s) : 2 channels
Channel layout : L R
Sampling rate : 48.0 kHz
Frame rate : 93.750 FPS (512 SPF)
Bit depth : 24 bits
Compression mode : Lossless
Stream size : 1.36 GiB (6%)
Title : DTS-HD MA 2.0
Language : English
Default : No
Forced : No
Original source medium : Blu-ray

Text #1
ID : 4
Format : UTF-8
Codec ID : S_TEXT/UTF8
Codec ID/Info : UTF-8 Plain Text
Duration : 1 h 30 min
Bit rate : 45 b/s
Frame rate : 0.208 FPS
Count of elements : 1127
Stream size : 30.3 KiB (0%)
Language : English
Default : Yes
Forced : No

Text #2
ID : 5
Format : UTF-8
Codec ID : S_TEXT/UTF8
Codec ID/Info : UTF-8 Plain Text
Duration : 1 h 35 min
Bit rate : 53 b/s
Frame rate : 0.239 FPS
Count of elements : 1372
Stream size : 37.3 KiB (0%)
Title : SDH
Language : English
Default : No
Forced : No

Text #3
ID : 6
ID in the original source medium : 4608 (0x1200)
Format : PGS
Muxing mode : zlib
Codec ID : S_HDMV/PGS
Codec ID/Info : Picture based subtitle format used on BDs/HD-DVDs
Duration : 1 h 35 min
Bit rate : 30.1 kb/s
Frame rate : 0.492 FPS
Count of elements : 2824
Stream size : 20.6 MiB (0%)
Language : English
Default : No
Forced : No
Original source medium : Blu-ray

Menu
00:00:00.000 : en:Chapter 01
00:11:04.330 : en:Chapter 02
00:22:02.904 : en:Chapter 03
00:32:56.182 : en:Chapter 04
00:42:10.569 : en:Chapter 05
00:51:05.437 : en:Chapter 06
01:00:19.699 : en:Chapter 07
01:11:58.188 : en:Chapter 08
01:20:01.797 : en:Chapter 09
01:27:49.430 : en:Chapter 10
01:36:50.888 : en:Chapter 11

本帖子中包含更多资源

您需要 登录 才可以下载或查看,没有帐号?立即注册

x
回复

使用道具 举报

您需要登录后才可以回帖 登录 | 立即注册

本版积分规则

QQ|Archiver|手机版|小黑屋|原盘天堂 好多盘 点击这里给我发消息

GMT+8, 2023-1-29 10:14 , Processed in 0.046121 second(s), 25 queries .

Powered by Discuz! X3.4

Copyright © 2001-2021, Tencent Cloud.

快速回复 返回顶部 返回列表