请选择 进入手机版 | 继续访问电脑版
本站Q群713428235【盘盘多】已满,请新会员加原盘天堂新官方QQ群709708625【好多盘】,验证信息填写您在论坛的会员名,不填会员名的无法入群哈,进群后修改您的群名片名字为您在论坛的会员名,请务必修改,否则群成员多了不知道您是哪个会员。

原盘天堂

 找回密码
 立即注册
京东商城当当华为商城名牌时尚折扣网,一个新型的网上购物平台,我们每周为您精选3~4个国际知名品牌,商品折扣低至2折限时限量售卖,商品囊括时装、护肤品、箱包、皮具、配饰、香水等等,琳琅满目。亿格瑞A10硬盘播放器 苏宁易购
查看: 85|回复: 0

4k蓝光原盘bdmv 金刚:传奇重生 英语原版 king.kong.1976.2160p.bluray.hevc.dts-hd.ma.5.1[81.38 GB]

[复制链接]

7423

主题

8549

帖子

135万

积分

管理员

Rank: 18Rank: 18Rank: 18Rank: 18Rank: 18

积分
1353705
发表于 2022-12-27 10:47:07 | 显示全部楼层 |阅读模式








◎译  名 金刚:传奇重生/金刚
◎片  名 King Kong
◎年  代 1976
◎产  地 美国
◎类  别 动作/奇幻/冒险
◎语  言 英语
◎上映日期 1976-09-08(法国)
◎IMDb评分 5.9/10 from 33271 users
◎IMDb链接 https://www.imdb.com/title/tt0074751/
◎豆瓣评分 6.5/10 from 1459 users
◎豆瓣链接 https://douban.com/subject/1300354/
◎片  长 134分钟
◎导  演 约翰·吉勒明 John Guillermin
◎编  剧 詹姆斯·阿什莫尔·克里尔曼 James Ashmore Creelman / 露丝·罗斯 Ruth Rose / 梅里安·C·库珀 Merian C. Cooper / 埃德加·华莱士 Edgar Wallace / 洛伦佐·森普尔 Lorenzo Semple Jr.
◎主  演 杰夫·布里吉斯 Jeff Bridges
      查尔斯·格罗丁 Charles Grodin
      杰西卡·兰格 Jessica Lange
      约翰·兰道夫 John Randolph
      勒内·奥贝尔若努瓦 Rene Auberjonois
      尤利乌斯•哈里斯 Julius Harris
      杰克·奥哈罗兰 Jack O'Halloran
      Dennis Fimple Dennis Fimple
      埃德·劳特尔 Ed Lauter
      马里奥加洛 Mario Gallo
      尊龙 John Lone
      Garry Walberg Garry Walberg
      约翰·艾加尔 John Agar
      Sid Conrad Sid Conrad
      韦恩·赫弗雷 Wayne Heffley
      福里斯特·J·阿克曼 Forrest J. Ackerman
      里克·贝克 Rick Baker
      柯宾·伯恩森 Corbin Bernsen
      Ray Buktenica Ray Buktenica
      彼特·库伦 Peter Cullen
       James Dunaway
      Ned Gill Ned Gill
      唐诺·葛勒特 Donald F. Glut
      Walt Gorney Walt Gorney
      布伦特·哈夫 Brent Huff
      Shawn McAllister Shawn McAllister
      伊娃·麦克维 Eve McVeagh
      乔·皮斯科波 Joe Piscopo
      Harrison Ressler Harrison Ressler
      Ron Roccia Ron Roccia
      David Roya David Roya
      Billy Zoom Billy Zoom

◎简  介

  
  佛烈到印尼一小岛寻找石油,途中遇偷渡客积斯高与沉船获救的戴安。戴安被士人捉去祭神,原来士人膜拜的金刚是一头身高十丈的大猩猩。金刚对戴安起了怜惜之心,但佛烈却将金刚迷倒,送到纽约展览。金刚醒来却找寻戴安,大闹纽约。
  

◎获奖情况

  第49届奥斯卡金像奖 (1977)
  最佳摄影(提名) 理查·克莱因
  最佳音响(提名) 亚伦·罗琴 / 哈里·W·泰特里克 / 杰克·所罗门 / 威廉·L·麦考伊
  特别成就奖 弗兰克·范·德·维尔 / 卡罗·兰巴尔迪 / 格伦·罗宾森

DISC INFO:

Disc Title:     King.Kong.1976.COMPLETE.UHD.BLURAY-SURCODE
Disc Size:      87,377,250,902 bytes
Protection:     AACS2
Extras:         Ultra HD
BDInfo:         0.7.5.9 (compatible layout created by DVDFab 12.0.9.2)

PLAYLIST REPORT:

Name:                   00050.MPLS  
Length:                 2:14:49.000 (h:m:s.ms)
Size:                   76,743,665,664 bytes
Total Bitrate:          75.90 Mbps

(*) Indicates included stream hidden by this playlist.

VIDEO:

Codec                   Bitrate             Description   
-----                   -------             -----------   
MPEG-H HEVC Video       51329 kbps          2160p / 24 fps / 16:9 / Main 10 @ Level 5.1 @ High / 4:2:0 / 10 bits / 4000nits / HDR10 / BT.2020
* MPEG-H HEVC Video     9295 kbps (15.33%)  1080p / 24 fps / 16:9 / Main 10 @ Level 5.1 @ High / 4:2:0 / 10 bits / 4000nits / Dolby Vision FEL / BT.2020

AUDIO:

Codec                           Language        Bitrate         Description   
-----                           --------        -------         -----------   
LPCM Audio                      German          2304 kbps       2.0 / 48 kHz / 2304 kbps / 24-bit
LPCM Audio                      English         2304 kbps       2.0 / 48 kHz / 2304 kbps / 24-bit
DTS-HD Master Audio             English         3934 kbps       5.1 / 48 kHz / 3934 kbps / 24-bit (DTS Core: 5.1 / 48 kHz / 1509 kbps / 24-bit)
LPCM Audio                      French          2304 kbps       2.0 / 48 kHz / 2304 kbps / 24-bit
* Dolby Digital Audio           English         192 kbps        2.0 / 48 kHz / 192 kbps
* Dolby Digital Audio           English         192 kbps        2.0 / 48 kHz / 192 kbps

SUBTITLES:

Codec                           Language        Bitrate         Description   
-----                           --------        -------         -----------   
Presentation Graphics           German          16.327 kbps                    
Presentation Graphics           English         14.85 kbps                     
Presentation Graphics           French          13.854 kbps                    
Presentation Graphics           German          0.274 kbps                     
Presentation Graphics           French          0.298 kbps                     
* Presentation Graphics         German          73.606 kbps                    
* Presentation Graphics         German          54.992 kbps                    
* Presentation Graphics         French          54.319 kbps                    
* Presentation Graphics         French          75.568 kbps   

Video
ID : 1
ID in the original source medium : 4113 (0x1011)
Format : HEVC
Format/Info : High Efficiency Video Coding
Format profile : Main [email protected]@High
HDR format : Dolby Vision, Version 1.0, dvhe.07.06, BL+EL+RPU, Blu-ray compatible / SMPTE ST 2086, HDR10 compatible
Codec ID : V_MPEGH/ISO/HEVC
Duration : 2 h 14 min
Bit rate : 60.6 Mb/s
Width : 3 840 pixels
Height : 2 160 pixels
Display aspect ratio : 16:9
Frame rate mode : Constant
Frame rate : 24.000 FPS
Color space : YUV
Chroma subsampling : 4:2:0 (Type 2)
Bit depth : 10 bits
Bits/(Pixel*Frame) : 0.305
Stream size : 57.1 GiB (84%)
Language : English
Default : No
Forced : No
Color range : Limited
Color primaries : BT.2020
Transfer characteristics : PQ
Matrix coefficients : BT.2020 non-constant
Mastering display color primaries : BT.2020
Mastering display luminance : min: 0.0050 cd/m2, max: 4000 cd/m2
Original source medium : Blu-ray

Audio #1
ID : 2
ID in the original source medium : 4354 (0x1102)
Format : DTS XLL
Format/Info : Digital Theater Systems
Commercial name : DTS-HD Master Audio
Codec ID : A_DTS
Duration : 2 h 14 min
Bit rate mode : Variable
Bit rate : 3 934 kb/s
Channel(s) : 6 channels
Channel layout : C L R Ls Rs LFE
Sampling rate : 48.0 kHz
Frame rate : 93.750 FPS (512 SPF)
Bit depth : 24 bits
Compression mode : Lossless
Stream size : 3.70 GiB (5%)
Title : DTS-HD MA 5.1
Language : English
Default : Yes
Forced : No
Original source medium : Blu-ray

Audio #2
ID : 3
Format : AC-3
Format/Info : Audio Coding 3
Commercial name : Dolby Digital
Codec ID : A_AC3
Duration : 2 h 14 min
Bit rate mode : Constant
Bit rate : 640 kb/s
Channel(s) : 6 channels
Channel layout : L R C LFE Ls Rs
Sampling rate : 48.0 kHz
Frame rate : 31.250 FPS (1536 SPF)
Compression mode : Lossy
Stream size : 617 MiB (1%)
Title : DD 5.1
Language : English
Service kind : Complete Main
Default : No
Forced : No

Audio #3
ID : 4
ID in the original source medium : 4352 (0x1100)
Format : PCM
Format settings : Little / Signed
Codec ID : A_PCM/INT/LIT
Duration : 2 h 14 min
Bit rate mode : Constant
Bit rate : 2 304 kb/s
Channel(s) : 2 channels
Sampling rate : 48.0 kHz
Frame rate : 30.000 FPS (1600 SPF)
Bit depth : 24 bits
Stream size : 2.17 GiB (3%)
Title : LPCM 2.0
Language : German
Default : No
Forced : No
Original source medium : Blu-ray

Audio #4
ID : 5
ID in the original source medium : 4353 (0x1101)
Format : PCM
Format settings : Little / Signed
Codec ID : A_PCM/INT/LIT
Duration : 2 h 14 min
Bit rate mode : Constant
Bit rate : 2 304 kb/s
Channel(s) : 2 channels
Sampling rate : 48.0 kHz
Frame rate : 30.000 FPS (1600 SPF)
Bit depth : 24 bits
Stream size : 2.17 GiB (3%)
Title : LPCM 2.0
Language : English
Default : No
Forced : No
Original source medium : Blu-ray

Audio #5
ID : 6
ID in the original source medium : 4355 (0x1103)
Format : PCM
Format settings : Little / Signed
Codec ID : A_PCM/INT/LIT
Duration : 2 h 14 min
Bit rate mode : Constant
Bit rate : 2 304 kb/s
Channel(s) : 2 channels
Sampling rate : 48.0 kHz
Frame rate : 30.000 FPS (1600 SPF)
Bit depth : 24 bits
Stream size : 2.17 GiB (3%)
Title : LPCM 2.0
Language : French
Default : No
Forced : No
Original source medium : Blu-ray

Text #1
ID : 7
Format : UTF-8
Codec ID : S_TEXT/UTF8
Codec ID/Info : UTF-8 Plain Text
Duration : 2 h 10 min
Bit rate : 24 b/s
Frame rate : 0.075 FPS
Count of elements : 587
Stream size : 23.8 KiB (0%)
Language : English
Default : Yes
Forced : No

Text #2
ID : 8
Format : UTF-8
Codec ID : S_TEXT/UTF8
Codec ID/Info : UTF-8 Plain Text
Duration : 2 h 10 min
Bit rate : 33 b/s
Frame rate : 0.158 FPS
Count of elements : 1239
Stream size : 31.9 KiB (0%)
Title : SHOUT
Language : English
Default : No
Forced : No

Text #3
ID : 9
ID in the original source medium : 4768 (0x12A0)
Format : PGS
Muxing mode : zlib
Codec ID : S_HDMV/PGS
Codec ID/Info : Picture based subtitle format used on BDs/HD-DVDs
Duration : 2 h 11 min
Bit rate : 16.7 kb/s
Frame rate : 0.151 FPS
Count of elements : 1196
Stream size : 15.7 MiB (0%)
Language : German
Default : No
Forced : No
Original source medium : Blu-ray

Text #4
ID : 10
ID in the original source medium : 4769 (0x12A1)
Format : PGS
Muxing mode : zlib
Codec ID : S_HDMV/PGS
Codec ID/Info : Picture based subtitle format used on BDs/HD-DVDs
Duration : 2 h 10 min
Bit rate : 15.3 kb/s
Frame rate : 0.151 FPS
Count of elements : 1184
Stream size : 14.3 MiB (0%)
Language : English
Default : No
Forced : No
Original source medium : Blu-ray

Text #5
ID : 11
ID in the original source medium : 4770 (0x12A2)
Format : PGS
Muxing mode : zlib
Codec ID : S_HDMV/PGS
Codec ID/Info : Picture based subtitle format used on BDs/HD-DVDs
Duration : 2 h 14 min
Bit rate : 13.9 kb/s
Frame rate : 0.175 FPS
Count of elements : 1404
Stream size : 13.4 MiB (0%)
Language : French
Default : No
Forced : No
Original source medium : Blu-ray

Text #6
ID : 12
ID in the original source medium : 4771 (0x12A3)
Format : PGS
Muxing mode : zlib
Codec ID : S_HDMV/PGS
Codec ID/Info : Picture based subtitle format used on BDs/HD-DVDs
Duration : 22 s 938 ms
Bit rate : 96.7 kb/s
Frame rate : 0.610 FPS
Count of elements : 14
Stream size : 271 KiB (0%)
Language : German
Default : No
Forced : No
Original source medium : Blu-ray

Text #7
ID : 13
ID in the original source medium : 4772 (0x12A4)
Format : PGS
Muxing mode : zlib
Codec ID : S_HDMV/PGS
Codec ID/Info : Picture based subtitle format used on BDs/HD-DVDs
Duration : 16 min 44 s
Bit rate : 2 403 b/s
Frame rate : 0.016 FPS
Count of elements : 16
Stream size : 295 KiB (0%)
Language : French
Default : No
Forced : No
Original source medium : Blu-ray

Menu
00:00:00.000 : en:Chapter 01
00:14:46.000 : en:Chapter 02
00:24:45.000 : en:Chapter 03
00:31:57.000 : en:Chapter 04
00:43:51.000 : en:Chapter 05
00:54:12.000 : en:Chapter 06
01:06:57.000 : en:Chapter 07
01:16:43.000 : en:Chapter 08
01:31:10.000 : en:Chapter 09
01:42:34.000 : en:Chapter 10
01:55:49.000 : en:Chapter 11
02:09:41.000 : en:Chapter 12

本帖子中包含更多资源

您需要 登录 才可以下载或查看,没有帐号?立即注册

x
回复

使用道具 举报

您需要登录后才可以回帖 登录 | 立即注册

本版积分规则

QQ|Archiver|手机版|小黑屋|原盘天堂 好多盘 点击这里给我发消息

GMT+8, 2023-1-29 10:00 , Processed in 0.044661 second(s), 24 queries .

Powered by Discuz! X3.4

Copyright © 2001-2021, Tencent Cloud.

快速回复 返回顶部 返回列表