请选择 进入手机版 | 继续访问电脑版
本站Q群713428235【盘盘多】已满,请新会员加原盘天堂新官方QQ群709708625【好多盘】,验证信息填写您在论坛的会员名,不填会员名的无法入群哈,进群后修改您的群名片名字为您在论坛的会员名,请务必修改,否则群成员多了不知道您是哪个会员。

原盘天堂

 找回密码
 立即注册
京东商城当当华为商城名牌时尚折扣网,一个新型的网上购物平台,我们每周为您精选3~4个国际知名品牌,商品折扣低至2折限时限量售卖,商品囊括时装、护肤品、箱包、皮具、配饰、香水等等,琳琅满目。亿格瑞A10硬盘播放器 苏宁易购
查看: 59|回复: 0

2d蓝光原盘bdmv 魔缘 重制版 英语原版 audrey.rose.1977.remastered.1080p.bluray.avc.lpcm.1.0[44.52 GB]

[复制链接]

7423

主题

8549

帖子

135万

积分

管理员

Rank: 18Rank: 18Rank: 18Rank: 18Rank: 18

积分
1353705
发表于 2022-12-27 09:46:34 | 显示全部楼层 |阅读模式








◎译  名 魔缘/奥德丽.罗丝/欧德丽罗丝
◎片  名 Audrey Rose
◎年  代 1977
◎产  地 美国
◎类  别 剧情/惊悚/恐怖/奇幻
◎语  言 英语
◎上映日期 1977-04-06
◎IMDb评分 5.8/10 from 6258 users
◎IMDb链接 https://www.imdb.com/title/tt0075704/
◎豆瓣评分 5.9/10 from 64 users
◎豆瓣链接 https://douban.com/subject/1292976/
◎片  长 113 分钟
◎导  演 罗伯特·怀斯 Robert Wise
◎编  剧 弗兰克·德·费里塔 Frank De Felitta
◎主  演 安东尼·霍普金斯 Anthony Hopkins
      玛莎·梅森 Marsha Mason
      诺曼·劳埃德 Norman Lloyd
      约翰·席勒曼 John Hillerman
      罗伯特·瓦尔登 Robert Walden

◎简  介

  
  以东方人早已有之的“再世轮回说"为题材的西片。影片一开始以一段风雨中汽车相撞的镜头作为序幕,其后,即以平静而缓慢的调子展开故事。邓普顿夫妇是住在纽约市的年轻恩爱夫妻,他们有一个十一岁的女儿艾薇,长得活泼可爱。可是自从神秘男子出现之后,这个幸福的小家庭却激起了致命的波澜。

DISC INFO:

Disc Title:     Audrey.Rose.1977.REMASTERED.1080p.BluRay.AVC.LPCM.1.0-INCUBO
Disc Size:      47,798,408,649 bytes
Protection:     AACS
BDInfo:         0.7.5.9 (compatible layout created by DVDFab 12.0.9.2)

PLAYLIST REPORT:

Name:                   00000.MPLS  
Length:                 1:53:12.911 (h:m:s.ms)
Size:                   36,449,556,480 bytes
Total Bitrate:          42.93 Mbps

VIDEO:

Codec                   Bitrate             Description   
-----                   -------             -----------   
MPEG-4 AVC Video        37849 kbps          1080p / 23.976 fps / 16:9 / High Profile 4.1

AUDIO:

Codec                           Language        Bitrate         Description   
-----                           --------        -------         -----------   
LPCM Audio                      English         1152 kbps       1.0 / 48 kHz / 1152 kbps / 24-bit
DTS Audio                       English         768 kbps        2.0 / 48 kHz / 768 kbps / 24-bit

SUBTITLES:

Codec                           Language        Bitrate         Description   
-----                           --------        -------         -----------   
Presentation Graphics           English         33.885 kbps                 

Video
ID : 1
ID in the original source medium : 4113 (0x1011)
Format : AVC
Format/Info : Advanced Video Codec
Format profile : [email protected]
Format settings : CABAC / 3 Ref Frames
Format settings, CABAC : Yes
Format settings, Reference frames : 3 frames
Codec ID : V_MPEG4/ISO/AVC
Duration : 1 h 53 min
Bit rate mode : Variable
Bit rate : 38.0 Mb/s
Maximum bit rate : 40.0 Mb/s
Width : 1 920 pixels
Height : 1 080 pixels
Display aspect ratio : 16:9
Frame rate mode : Constant
Frame rate : 23.976 (24000/1001) FPS
Color space : YUV
Chroma subsampling : 4:2:0
Bit depth : 8 bits
Scan type : Progressive
Bits/(Pixel*Frame) : 0.764
Stream size : 29.9 GiB (95%)
Writing library : x264 core 157 r2935 545de2f
Encoding settings : cabac=1 / ref=4 / deblock=1:-2:-2 / analyse=0x3:0x133 / me=tesa / subme=11 / psy=1 / psy_rd=1.00:0.25 / mixed_ref=1 / me_range=24 / chroma_me=1 / trellis=2 / 8x8dct=1 / cqm=0 / deadzone=6,6 / fast_pskip=0 / chroma_qp_offset=-4 / threads=24 / lookahead_threads=2 / sliced_threads=0 / slices=4 / nr=0 / decimate=0 / interlaced=0 / bluray_compat=1 / stitchable=1 / constrained_intra=0 / bframes=3 / b_pyramid=1 / b_adapt=2 / b_bias=0 / direct=3 / weightb=1 / open_gop=1 / weightp=1 / keyint=24 / keyint_min=1 / scenecut=40 / intra_refresh=0 / rc_lookahead=24 / rc=2pass / mbtree=1 / bitrate=38000 / ratetol=1.0 / qcomp=0.80 / qpmin=0 / qpmax=69 / qpstep=4 / cplxblur=20.0 / qblur=0.5 / vbv_maxrate=40000 / vbv_bufsize=30000 / nal_hrd=vbr / filler=0 / ip_ratio=1.10 / aq=1:0.50
Language : English
Default : No
Forced : No
Color range : Limited
Color primaries : BT.709
Transfer characteristics : BT.709
Matrix coefficients : BT.709
Original source medium : Blu-ray

Audio #1
ID : 2
ID in the original source medium : 4352 (0x1100)
Format : PCM
Format settings : Little / Signed
Codec ID : A_PCM/INT/LIT
Duration : 1 h 53 min
Bit rate mode : Constant
Bit rate : 1 152 kb/s
Channel(s) : 1 channel
Sampling rate : 48.0 kHz
Frame rate : 30.000 FPS (1600 SPF)
Bit depth : 24 bits
Stream size : 933 MiB (3%)
Title : LPCM 1.0
Language : English
Default : Yes
Forced : No
Original source medium : Blu-ray

Audio #2
ID : 3
ID in the original source medium : 4353 (0x1101)
Format : DTS
Format/Info : Digital Theater Systems
Codec ID : A_DTS
Duration : 1 h 53 min
Bit rate mode : Constant
Bit rate : 768 kb/s
Channel(s) : 2 channels
Channel layout : L R
Sampling rate : 48.0 kHz
Frame rate : 93.750 FPS (512 SPF)
Bit depth : 24 bits
Compression mode : Lossy
Stream size : 622 MiB (2%)
Title : DTS 2.0
Language : English
Default : No
Forced : No
Original source medium : Blu-ray

Text #1
ID : 4
Format : UTF-8
Codec ID : S_TEXT/UTF8
Codec ID/Info : UTF-8 Plain Text
Duration : 1 h 45 min
Bit rate : 62 b/s
Frame rate : 0.201 FPS
Count of elements : 1268
Stream size : 48.3 KiB (0%)
Language : English
Default : Yes
Forced : No

Text #2
ID : 5
Format : UTF-8
Codec ID : S_TEXT/UTF8
Codec ID/Info : UTF-8 Plain Text
Duration : 1 h 51 min
Bit rate : 62 b/s
Frame rate : 0.201 FPS
Count of elements : 1337
Stream size : 50.5 KiB (0%)
Title : SDH
Language : English
Default : No
Forced : No

Text #3
ID : 6
ID in the original source medium : 4608 (0x1200)
Format : PGS
Muxing mode : zlib
Codec ID : S_HDMV/PGS
Codec ID/Info : Picture based subtitle format used on BDs/HD-DVDs
Duration : 1 h 51 min
Bit rate : 34.5 kb/s
Frame rate : 0.408 FPS
Count of elements : 2716
Stream size : 27.4 MiB (0%)
Language : English
Default : No
Forced : No
Original source medium : Blu-ray

Menu
00:00:00.000 : en:Chapter 01
00:11:49.583 : en:Chapter 02
00:17:00.936 : en:Chapter 03
00:21:41.550 : en:Chapter 04
00:30:39.003 : en:Chapter 05
00:42:51.819 : en:Chapter 06
00:51:59.199 : en:Chapter 07
01:00:14.110 : en:Chapter 08
01:09:13.983 : en:Chapter 09
01:22:09.299 : en:Chapter 10
01:29:42.335 : en:Chapter 11
01:51:25.637 : en:Chapter 12

本帖子中包含更多资源

您需要 登录 才可以下载或查看,没有帐号?立即注册

x
回复

使用道具 举报

您需要登录后才可以回帖 登录 | 立即注册

本版积分规则

QQ|Archiver|手机版|小黑屋|原盘天堂 好多盘 点击这里给我发消息

GMT+8, 2023-1-29 11:09 , Processed in 0.040141 second(s), 24 queries .

Powered by Discuz! X3.4

Copyright © 2001-2021, Tencent Cloud.

快速回复 返回顶部 返回列表