请选择 进入手机版 | 继续访问电脑版
本站Q群713428235【盘盘多】已满,请新会员加原盘天堂新官方QQ群709708625【好多盘】,验证信息填写您在论坛的会员名,不填会员名的无法入群哈,进群后修改您的群名片名字为您在论坛的会员名,请务必修改,否则群成员多了不知道您是哪个会员。

原盘天堂

 找回密码
 立即注册
京东商城当当华为商城名牌时尚折扣网,一个新型的网上购物平台,我们每周为您精选3~4个国际知名品牌,商品折扣低至2折限时限量售卖,商品囊括时装、护肤品、箱包、皮具、配饰、香水等等,琳琅满目。亿格瑞A10硬盘播放器 苏宁易购
查看: 85|回复: 0

4k蓝光原盘bdmv 共同警备区 英语原版 joint.security.area.2000.korean.2160p.bluray.hevc.sdr.dts-hd.ma.5.1[79.82 GB]

[复制链接]

7423

主题

8549

帖子

135万

积分

管理员

Rank: 18Rank: 18Rank: 18Rank: 18Rank: 18

积分
1353705
发表于 2022-12-26 09:23:04 | 显示全部楼层 |阅读模式








◎译  名 共同警备区/共同警备区域JSA/共同警戒区(台)/联合防卫领域/Joint Security Area/JSA安全地带
◎片  名 공동경비구역 JSA
◎年  代 2000
◎产  地 韩国
◎类  别 剧情
◎语  言 韩语/英语/德语
◎上映日期 2000-09-09(韩国)
◎IMDb评分 7.8/10 from 31083 users
◎IMDb链接 https://www.imdb.com/title/tt0260991/
◎豆瓣评分 8.8/10 from 95125 users
◎豆瓣链接 https://douban.com/subject/1306664/
◎片  长 110分钟
◎导  演 朴赞郁 Chan-wook Park
◎编  剧 金炫锡 Hyeon-seok Kim / 李无影 Mu-yeong Lee / 郑成山 Sung-san Jung / 朴赞郁 Chan-wook Park / 朴尚渊 Sang-yeon Park
◎主  演 李英爱 Yeong-ae Lee
      李秉宪 Byung-hun Lee
      宋康昊 Kang-ho Song
      金太祐 Tae-woo Kim
      申河均 Ha-kyun Shin
      赫伯特·乌利齐 Herbert Ulrich
      克里斯托夫·霍夫里希特 Christoph Hofrichter
      李汉伟 Han-wi Lee
      奇周峯 Joo-bong Ki
      陈泰贤 Zin Tae Hyun
      李代延 Dae-yeon Lee
      林一圭 Lim il-kyu
      
      权南熙 Nam-hee Kwon
      金明秀 Myoeng-su Kim
      朴胜裴 Seung-Bae Park

◎简  介

  
  板门店边界的共同警备区,一天,哨所里的朝鲜士兵(申河均饰)为来路不明的子弹所杀,引发双方枪战。而最有嫌疑的凶手是同在边界上的韩国士兵,但韩国一方却指责是朝鲜先调起事端,双方都认为对手应该对此负责。
  
  为了解决这一无头案件,南北双方同意由一个中立国来进行调查协调。瑞士国籍韩国女孩苏菲(李英爱饰)受派前来调查事件,韩国这边的李秀赫(李秉宪饰)始终保持沉默,而朝鲜一边的幸存者吴敬必(宋康昊饰)却表现出敌意,事情扑朔迷离。随着深入了解,苏菲发现事情隐藏著内幕,现场还另有其人……
  

◎获奖情况

  第51届柏林国际电影节 (2001)
  金熊奖最佳影片(提名) 朴赞郁
  
  第22届香港电影金像奖 (2003)
  最佳亚洲电影(提名)

DISC INFO:

Disc Title:     Joint.Security.Area.2000.KOREAN.2160p.BluRay.HEVC.SDR.DTS-HD.MA.5.1-Psaro
Disc Size:      85,701,035,892 bytes
Protection:     AACS2
Extras:         Ultra HD
BDInfo:         0.7.5.9 (compatible layout created by DVDFab 12.0.9.2)

PLAYLIST REPORT:

Name:                   00000.MPLS  
Length:                 1:49:00.575 (h:m:s.ms)
Size:                   84,122,830,848 bytes
Total Bitrate:          102.89 Mbps

VIDEO:

Codec                   Bitrate             Description   
-----                   -------             -----------   
MPEG-H HEVC Video       89998 kbps          2160p / 23.976 fps / 16:9 / Main 10 @ Level 5.1 @ High / 4:2:0 / 10 bits / SDR / BT.709

AUDIO:

Codec                           Language        Bitrate         Description   
-----                           --------        -------         -----------   
DTS-HD Master Audio             French          4155 kbps       5.1 / 48 kHz / 4155 kbps / 24-bit (DTS Core: 5.1 / 48 kHz / 1509 kbps / 24-bit)
DTS-HD Master Audio             Korean          3908 kbps       5.1 / 48 kHz / 3908 kbps / 24-bit (DTS Core: 5.1 / 48 kHz / 1509 kbps / 24-bit)

SUBTITLES:

Codec                           Language        Bitrate         Description   
-----                           --------        -------         -----------   
Presentation Graphics           French          0.352 kbps                     
Presentation Graphics           French          15.827 kbps  


Video
ID : 1
ID in the original source medium : 4113 (0x1011)
Format : HEVC
Format/Info : High Efficiency Video Coding
Format profile : Main [email protected]@High
Codec ID : V_MPEGH/ISO/HEVC
Duration : 1 h 49 min
Bit rate : 90.0 Mb/s
Width : 3 840 pixels
Height : 2 160 pixels
Display aspect ratio : 16:9
Frame rate mode : Constant
Frame rate : 23.976 (24000/1001) FPS
Color space : YUV
Chroma subsampling : 4:2:0 (Type 2)
Bit depth : 10 bits
Bits/(Pixel*Frame) : 0.453
Stream size : 68.5 GiB (91%)
Writing library : ATEME Titan File 3.9.4 (4.9.4.12)
Language : English
Default : No
Forced : No
Color range : Limited
Color primaries : BT.709
Transfer characteristics : BT.709
Matrix coefficients : BT.709
Original source medium : Blu-ray

Audio #1
ID : 2
ID in the original source medium : 4353 (0x1101)
Format : DTS XLL
Format/Info : Digital Theater Systems
Commercial name : DTS-HD Master Audio
Codec ID : A_DTS
Duration : 1 h 49 min
Bit rate mode : Variable
Bit rate : 3 908 kb/s
Channel(s) : 6 channels
Channel layout : C L R Ls Rs LFE
Sampling rate : 48.0 kHz
Frame rate : 93.750 FPS (512 SPF)
Bit depth : 24 bits
Compression mode : Lossless
Stream size : 2.98 GiB (4%)
Title : DTS-HD MA 5.1
Language : Korean
Default : Yes
Forced : No
Original source medium : Blu-ray

Audio #2
ID : 3
Format : AC-3
Format/Info : Audio Coding 3
Commercial name : Dolby Digital
Codec ID : A_AC3
Duration : 1 h 49 min
Bit rate mode : Constant
Bit rate : 640 kb/s
Channel(s) : 6 channels
Channel layout : L R C LFE Ls Rs
Sampling rate : 48.0 kHz
Frame rate : 31.250 FPS (1536 SPF)
Compression mode : Lossy
Stream size : 499 MiB (1%)
Title : DD 5.1
Language : Korean
Service kind : Complete Main
Default : No
Forced : No

Audio #3
ID : 4
ID in the original source medium : 4352 (0x1100)
Format : DTS XLL
Format/Info : Digital Theater Systems
Commercial name : DTS-HD Master Audio
Codec ID : A_DTS
Duration : 1 h 49 min
Bit rate mode : Variable
Bit rate : 4 155 kb/s
Channel(s) : 6 channels
Channel layout : C L R Ls Rs LFE
Sampling rate : 48.0 kHz
Frame rate : 93.750 FPS (512 SPF)
Bit depth : 24 bits
Compression mode : Lossless
Stream size : 3.16 GiB (4%)
Title : DTS-HD MA 5.1
Language : French
Default : No
Forced : No
Original source medium : Blu-ray

Text #1
ID : 5
Format : UTF-8
Codec ID : S_TEXT/UTF8
Codec ID/Info : UTF-8 Plain Text
Duration : 1 h 46 min
Bit rate : 32 b/s
Frame rate : 0.127 FPS
Count of elements : 808
Stream size : 25.2 KiB (0%)
Language : English
Default : Yes
Forced : No

Text #2
ID : 6
ID in the original source medium : 4609 (0x1201)
Format : PGS
Muxing mode : zlib
Codec ID : S_HDMV/PGS
Codec ID/Info : Picture based subtitle format used on BDs/HD-DVDs
Duration : 1 h 48 min
Bit rate : 15.8 kb/s
Frame rate : 0.261 FPS
Count of elements : 1708
Stream size : 12.3 MiB (0%)
Language : French
Default : No
Forced : No
Original source medium : Blu-ray

Text #3
ID : 7
ID in the original source medium : 4608 (0x1200)
Format : PGS
Muxing mode : zlib
Codec ID : S_HDMV/PGS
Codec ID/Info : Picture based subtitle format used on BDs/HD-DVDs
Duration : 1 h 46 min
Bit rate : 360 b/s
Frame rate : 0.007 FPS
Count of elements : 44
Stream size : 281 KiB (0%)
Title : FORCED
Language : French
Default : No
Forced : No
Original source medium : Blu-ray

Menu
00:00:00.000 : en:Chapter 01
00:08:57.912 : en:Chapter 02
00:19:33.839 : en:Chapter 03
00:28:54.274 : en:Chapter 04
00:39:38.959 : en:Chapter 05
00:49:10.572 : en:Chapter 06
01:01:03.034 : en:Chapter 07
01:10:41.362 : en:Chapter 08
01:18:48.765 : en:Chapter 09
01:27:33.039 : en:Chapter 10
01:38:18.350 : en:Chapter 11
01:46:03.815 : en:Chapter 12

本帖子中包含更多资源

您需要 登录 才可以下载或查看,没有帐号?立即注册

x
回复

使用道具 举报

您需要登录后才可以回帖 登录 | 立即注册

本版积分规则

QQ|Archiver|手机版|小黑屋|原盘天堂 好多盘 点击这里给我发消息

GMT+8, 2023-1-29 10:10 , Processed in 0.042844 second(s), 24 queries .

Powered by Discuz! X3.4

Copyright © 2001-2021, Tencent Cloud.

快速回复 返回顶部 返回列表