请选择 进入手机版 | 继续访问电脑版
本站Q群713428235【盘盘多】已满,请新会员加原盘天堂新官方QQ群709708625【好多盘】,验证信息填写您在论坛的会员名,不填会员名的无法入群哈,进群后修改您的群名片名字为您在论坛的会员名,请务必修改,否则群成员多了不知道您是哪个会员。

原盘天堂

 找回密码
 立即注册
京东商城当当华为商城名牌时尚折扣网,一个新型的网上购物平台,我们每周为您精选3~4个国际知名品牌,商品折扣低至2折限时限量售卖,商品囊括时装、护肤品、箱包、皮具、配饰、香水等等,琳琅满目。亿格瑞A10硬盘播放器 苏宁易购
查看: 56|回复: 0

4k蓝光原盘bdmv 童梦失魂夜 英语原版 the.city.of.lost.children.1995.french.2160p.bluray.hevc.dts-hd.ma.2.0[59.29 GB]

[复制链接]

7423

主题

8549

帖子

135万

积分

管理员

Rank: 18Rank: 18Rank: 18Rank: 18Rank: 18

积分
1353705
发表于 2022-12-26 08:56:06 | 显示全部楼层 |阅读模式








◎译  名 童梦失魂夜/惊异狂想曲/迷儿城/The City of Lost Children
◎片  名 La cité des enfants perdus
◎年  代 1995
◎产  地 法国/德国/西班牙/比利时/美国
◎类  别 科幻/奇幻
◎语  言 法语/粤语
◎上映日期 1995-05-17
◎IMDb评分 7.5/10 from 69251 users
◎IMDb链接 https://www.imdb.com/title/tt0112682/
◎豆瓣评分 7.9/10 from 10583 users
◎豆瓣链接 https://douban.com/subject/1306450/
◎片  长 112 分钟
◎导  演 马克·卡罗 Marc Caro / 让-皮埃尔·热内 Jean-Pierre Jeunet
◎编  剧 吉勒·阿德里安 Gilles Adrien / 让-皮埃尔·热内 Jean-Pierre Jeunet / 马克·卡罗 Marc Caro / 纪尧姆·洛朗 Guillaume Laurant
◎主  演 朗·普尔曼 Ron Perlman
      丹尼尔·埃米尔福克 Daniel Emilfork
      嘉蒂斯·维泰特 Judith Vittet
      多米尼克·皮侬 Dominique Pinon
      让-克洛德·德雷菲斯 Jean-Claude Dreyfus
      吉纳维芙波奈特 Geneviève Brunet
      奥迪勒马勒特 Odile Mallet
      塞尔·梅林 Serge Merlin
      吕菲斯 Rufus
      迪基·奥尔加多 Ticky Holgado
      皮埃尔昆汀范胥 Pierre-Quentin Faesch
      让-路易·特兰蒂尼昂 Jean-Louis Trintignant
      马修·卡索维茨 Mathieu Kassovitz

◎简  介

  
  故事发生在一个雾气氤氲的奇幻城市中,怪博士格勒(丹尼尔·埃米尔福克 Daniel Emilfork 饰)因无法做梦而饱受折磨,痛苦的他唯有指示手下的克隆人(多米尼克·皮诺 Dominique Pinon 饰)绑架城中的孩童,通过一个怪异的机器来窃取他们的梦境。可是,所有的美梦到了他这儿,均变成了噩梦。阿一(朗·普尔曼 Ron Perlman 饰)天生巨大强壮,一日,相依为命的弟弟被怪博士掳走,善良的他为了救回弟弟,联手孤儿偷窃团的成员美蒂(嘉蒂斯·维泰特 Judith Vittet 饰),同怪博士展开了一场斗智斗勇的殊死搏斗。
  
  导演让-皮埃尔·热内 (Jean-Pierre Jeunet)用他一贯天马行空的想象力,为我们构筑了一个正邪混杂但善良不灭的华丽梦境。
  

◎获奖情况

  第48届戛纳电影节 (1995)
  主竞赛单元金棕榈奖(提名) 让-皮埃尔·热内 / 马克·卡罗


DISC INFO:

Disc Title:     The.City.of.Lost.Children.1995.FRENCH.2160p.BluRay.HEVC.DTS-HD.MA.2.0-MiXER
Disc Size:      63,663,001,016 bytes
Protection:     AACS2
Extras:         Ultra HD, BD-Java
BDInfo:         0.7.5.9 (compatible layout created by DVDFab 12.0.9.2)

PLAYLIST REPORT:

Name:                   00001.MPLS  
Length:                 1:52:36.749 (h:m:s.ms)
Size:                   55,890,812,928 bytes
Total Bitrate:          66.17 Mbps

(*) Indicates included stream hidden by this playlist.

VIDEO:

Codec                   Bitrate             Description   
-----                   -------             -----------   
MPEG-H HEVC Video       57010 kbps          2160p / 23.976 fps / 16:9 / Main 10 @ Level 5.1 @ High / 4:2:0 / 10 bits / 1000nits / HDR10 / BT.2020
* MPEG-H HEVC Video     2100 kbps (3.55%)   1080p / 23.976 fps / 16:9 / Main 10 @ Level 5.1 @ High / 4:2:0 / 10 bits / 1000nits / Dolby Vision FEL / BT.2020

AUDIO:

Codec                           Language        Bitrate         Description   
-----                           --------        -------         -----------   
DTS-HD Master Audio             French          1557 kbps       2.0 / 48 kHz / 1557 kbps / 16-bit (DTS Core: 2.0 / 48 kHz / 1509 kbps / 16-bit)
DTS-HD Master Audio             English         1557 kbps       2.0 / 48 kHz / 1557 kbps / 16-bit (DTS Core: 2.0 / 48 kHz / 1509 kbps / 16-bit)
Dolby Digital Audio             English         192 kbps        2.0 / 48 kHz / 192 kbps / Dolby Surround
Dolby Digital Audio             French          192 kbps        2.0 / 48 kHz / 192 kbps

SUBTITLES:

Codec                           Language        Bitrate         Description   
-----                           --------        -------         -----------   
Presentation Graphics           English         24.584 kbps                    
Presentation Graphics           English         18.121 kbps                    
Presentation Graphics           English         55.603 kbps                    
Presentation Graphics           English         51.961 kbps   

Video
ID : 1
ID in the original source medium : 4113 (0x1011)
Format : HEVC
Format/Info : High Efficiency Video Coding
Format profile : Main [email protected]@High
HDR format : Dolby Vision, Version 1.0, dvhe.07.06, BL+EL+RPU, Blu-ray compatible / SMPTE ST 2086, HDR10 compatible
Codec ID : V_MPEGH/ISO/HEVC
Duration : 1 h 52 min
Bit rate : 59.1 Mb/s
Width : 3 840 pixels
Height : 2 160 pixels
Display aspect ratio : 16:9
Frame rate mode : Constant
Frame rate : 23.976 (24000/1001) FPS
Color space : YUV
Chroma subsampling : 4:2:0 (Type 2)
Bit depth : 10 bits
Bits/(Pixel*Frame) : 0.297
Stream size : 46.5 GiB (89%)
Language : English
Default : No
Forced : No
Color range : Limited
Color primaries : BT.2020
Transfer characteristics : PQ
Matrix coefficients : BT.2020 non-constant
Mastering display color primaries : BT.2020
Mastering display luminance : min: 0.0001 cd/m2, max: 1000 cd/m2
Maximum Content Light Level : 8247 cd/m2
Maximum Frame-Average Light Level : 312 cd/m2
Original source medium : Blu-ray

Audio #1
ID : 2
Format : DTS XLL
Format/Info : Digital Theater Systems
Commercial name : DTS-HD Master Audio
Codec ID : A_DTS
Duration : 1 h 52 min
Bit rate mode : Variable
Bit rate : 2 134 kb/s
Channel(s) : 6 channels
Channel layout : C L R Ls Rs LFE
Sampling rate : 48.0 kHz
Frame rate : 93.750 FPS (512 SPF)
Bit depth : 16 bits
Compression mode : Lossless
Delay relative to video : 5 ms
Stream size : 1.68 GiB (3%)
Title : DTS-HD MA 5.1
Language : French
Default : Yes
Forced : No

Audio #2
ID : 3
Format : AC-3
Format/Info : Audio Coding 3
Commercial name : Dolby Digital
Codec ID : A_AC3
Duration : 1 h 52 min
Bit rate mode : Constant
Bit rate : 640 kb/s
Channel(s) : 6 channels
Channel layout : L R C LFE Ls Rs
Sampling rate : 48.0 kHz
Frame rate : 31.250 FPS (1536 SPF)
Compression mode : Lossy
Stream size : 515 MiB (1%)
Title : DD 5.1
Language : French
Service kind : Complete Main
Default : No
Forced : No

Audio #3
ID : 4
ID in the original source medium : 4352 (0x1100)
Format : DTS XLL
Format/Info : Digital Theater Systems
Commercial name : DTS-HD Master Audio
Codec ID : A_DTS
Duration : 1 h 52 min
Bit rate mode : Variable
Bit rate : 1 557 kb/s
Channel(s) : 2 channels
Sampling rate : 48.0 kHz
Frame rate : 93.750 FPS (512 SPF)
Bit depth : 16 bits
Compression mode : Lossless
Stream size : 1.22 GiB (2%)
Title : DTS-HD MA 2.0
Language : French
Default : Yes
Forced : No
Original source medium : Blu-ray

Audio #4
ID : 5
ID in the original source medium : 4353 (0x1101)
Format : DTS XLL
Format/Info : Digital Theater Systems
Commercial name : DTS-HD Master Audio
Codec ID : A_DTS
Duration : 1 h 52 min
Bit rate mode : Variable
Bit rate : 1 557 kb/s
Channel(s) : 2 channels
Sampling rate : 48.0 kHz
Frame rate : 93.750 FPS (512 SPF)
Bit depth : 16 bits
Compression mode : Lossless
Stream size : 1.22 GiB (2%)
Title : DTS-HD MA 2.0
Language : English
Default : No
Forced : No
Original source medium : Blu-ray

Audio #5
ID : 6
Format : AC-3
Format/Info : Audio Coding 3
Commercial name : Dolby Digital
Codec ID : A_AC3
Duration : 1 h 52 min
Bit rate mode : Constant
Bit rate : 640 kb/s
Channel(s) : 2 channels
Channel layout : L R
Sampling rate : 48.0 kHz
Frame rate : 31.250 FPS (1536 SPF)
Compression mode : Lossy
Stream size : 516 MiB (1%)
Title : DD 5.1
Language : English
Service kind : Complete Main
Default : No
Forced : No

Audio #6
ID : 7
ID in the original source medium : 4354 (0x1102)
Format : AC-3
Format/Info : Audio Coding 3
Commercial name : Dolby Digital
Format settings : Dolby Surround
Codec ID : A_AC3
Duration : 1 h 52 min
Bit rate mode : Constant
Bit rate : 192 kb/s
Channel(s) : 2 channels
Channel layout : L R
Sampling rate : 48.0 kHz
Frame rate : 31.250 FPS (1536 SPF)
Compression mode : Lossy
Stream size : 155 MiB (0%)
Title : DD 2.0
Language : English
Service kind : Complete Main
Default : No
Forced : No
Original source medium : Blu-ray

Audio #7
ID : 8
ID in the original source medium : 4355 (0x1103)
Format : AC-3
Format/Info : Audio Coding 3
Commercial name : Dolby Digital
Codec ID : A_AC3
Duration : 1 h 52 min
Bit rate mode : Constant
Bit rate : 192 kb/s
Channel(s) : 2 channels
Channel layout : L R
Sampling rate : 48.0 kHz
Frame rate : 31.250 FPS (1536 SPF)
Compression mode : Lossy
Stream size : 155 MiB (0%)
Title : DD 2.0
Language : French
Service kind : Complete Main
Default : No
Forced : No
Original source medium : Blu-ray

Text #1
ID : 9
Format : UTF-8
Codec ID : S_TEXT/UTF8
Codec ID/Info : UTF-8 Plain Text
Duration : 1 h 47 min
Bit rate : 33 b/s
Frame rate : 0.143 FPS
Count of elements : 919
Stream size : 26.1 KiB (0%)
Language : English
Default : No
Forced : No

Text #2
ID : 10
Format : UTF-8
Codec ID : S_TEXT/UTF8
Codec ID/Info : UTF-8 Plain Text
Duration : 1 h 49 min
Bit rate : 41 b/s
Frame rate : 0.185 FPS
Count of elements : 1221
Stream size : 33.7 KiB (0%)
Title : SDH
Language : English
Default : No
Forced : No

Text #3
ID : 11
ID in the original source medium : 4768 (0x12A0)
Format : PGS
Muxing mode : zlib
Codec ID : S_HDMV/PGS
Codec ID/Info : Picture based subtitle format used on BDs/HD-DVDs
Duration : 1 h 49 min
Bit rate : 25.2 kb/s
Frame rate : 0.381 FPS
Count of elements : 2512
Stream size : 19.8 MiB (0%)
Language : English
Default : No
Forced : No
Original source medium : Blu-ray

Text #4
ID : 12
ID in the original source medium : 4769 (0x12A1)
Format : PGS
Muxing mode : zlib
Codec ID : S_HDMV/PGS
Codec ID/Info : Picture based subtitle format used on BDs/HD-DVDs
Duration : 1 h 42 min
Bit rate : 19.9 kb/s
Frame rate : 0.292 FPS
Count of elements : 1798
Stream size : 14.6 MiB (0%)
Language : English
Default : No
Forced : No
Original source medium : Blu-ray

Text #5
ID : 13
ID in the original source medium : 4769 (0x12A1)
Format : PGS
Muxing mode : zlib
Codec ID : S_HDMV/PGS
Codec ID/Info : Picture based subtitle format used on BDs/HD-DVDs
Duration : 44 min 39 s
Bit rate : 206 b/s
Frame rate : 0.004 FPS
Count of elements : 10
Stream size : 67.7 KiB (0%)
Language : English
Default : No
Forced : No
Original source medium : Blu-ray

Text #6
ID : 14
ID in the original source medium : 4770 (0x12A2)
Format : PGS
Muxing mode : zlib
Codec ID : S_HDMV/PGS
Codec ID/Info : Picture based subtitle format used on BDs/HD-DVDs
Duration : 1 h 50 min
Bit rate : 56.6 kb/s
Frame rate : 0.566 FPS
Count of elements : 3756
Stream size : 44.8 MiB (0%)
Language : English
Default : No
Forced : No
Original source medium : Blu-ray

Text #7
ID : 15
ID in the original source medium : 4771 (0x12A3)
Format : PGS
Muxing mode : zlib
Codec ID : S_HDMV/PGS
Codec ID/Info : Picture based subtitle format used on BDs/HD-DVDs
Duration : 1 h 47 min
Bit rate : 54.6 kb/s
Frame rate : 0.463 FPS
Count of elements : 2972
Stream size : 41.9 MiB (0%)
Language : English
Default : No
Forced : No
Original source medium : Blu-ray

Menu
00:00:00.000 : en:Chapter 01
00:04:16.631 : en:Chapter 02
00:10:17.658 : en:Chapter 03
00:17:31.925 : en:Chapter 04
00:22:36.897 : en:Chapter 05
00:27:17.636 : en:Chapter 06
00:33:01.479 : en:Chapter 07
00:38:24.427 : en:Chapter 08
00:46:00.883 : en:Chapter 09
00:54:16.670 : en:Chapter 10
01:01:43.199 : en:Chapter 11
01:12:32.681 : en:Chapter 12
01:19:13.498 : en:Chapter 13
01:26:10.498 : en:Chapter 14
01:34:56.440 : en:Chapter 15
01:43:47.596 : en:Chapter 16

本帖子中包含更多资源

您需要 登录 才可以下载或查看,没有帐号?立即注册

x
回复

使用道具 举报

您需要登录后才可以回帖 登录 | 立即注册

本版积分规则

QQ|Archiver|手机版|小黑屋|原盘天堂 好多盘 点击这里给我发消息

GMT+8, 2023-1-29 09:48 , Processed in 0.058004 second(s), 24 queries .

Powered by Discuz! X3.4

Copyright © 2001-2021, Tencent Cloud.

快速回复 返回顶部 返回列表