请选择 进入手机版 | 继续访问电脑版
本站Q群713428235【盘盘多】已满,请新会员加原盘天堂新官方QQ群709708625【好多盘】,验证信息填写您在论坛的会员名,不填会员名的无法入群哈,进群后修改您的群名片名字为您在论坛的会员名,请务必修改,否则群成员多了不知道您是哪个会员。

原盘天堂

 找回密码
 立即注册
京东商城当当华为商城名牌时尚折扣网,一个新型的网上购物平台,我们每周为您精选3~4个国际知名品牌,商品折扣低至2折限时限量售卖,商品囊括时装、护肤品、箱包、皮具、配饰、香水等等,琳琅满目。亿格瑞A10硬盘播放器 苏宁易购
查看: 67|回复: 1

4k蓝光原盘bdmv 请以你的名字呼唤我 英语原版 call.me.by.your.name.2017.2160p.bluray.hevc.dts-hd.ma.5.1[81.85 GB]

[复制链接]

7423

主题

8549

帖子

135万

积分

管理员

Rank: 18Rank: 18Rank: 18Rank: 18Rank: 18

积分
1353705
发表于 2022-12-26 08:47:04 | 显示全部楼层 |阅读模式








◎译  名 请以你的名字呼唤我/唤吾汝名/以你的名义呼唤我/以你的名字呼唤我(港/台)/Chiamami col tuo nome/CMBYN
◎片  名 Call Me by Your Name
◎年  代 2017
◎产  地 意大利/法国/巴西/美国
◎类  别 剧情/爱情/同性
◎语  言 英语/意大利语/法语/德语/希伯来语
◎上映日期 2017-01-22(圣丹斯电影节)/2017-11-24(美国)/2018-01-25(意大利)
◎IMDb评分 7.8/10 from 275448 users
◎IMDb链接 https://www.imdb.com/title/tt5726616/
◎豆瓣评分 8.9/10 from 687128 users
◎豆瓣链接 https://douban.com/subject/26799731/
◎片  长 132分钟
◎导  演 卢卡·瓜达尼诺 Luca Guadagnino
◎编  剧 詹姆斯·伊沃里 James Ivory / 安德列‧艾席蒙 André Aciman
◎主  演 艾米·汉莫 Armie Hammer
      提莫西·查拉梅 Timothée Chalamet
      迈克尔·斯图巴 Michael Stuhlbarg
      阿蜜拉·卡萨 Amira Casar
      艾斯特·加瑞尔 Esther Garrel
      维克图瓦尔·杜布瓦 Victoire Du Bois
      旺妲·卡布里奥罗 Vanda Capriolo
      安东尼奥·里莫尔迪 Antonio Rimoldi
      埃琳娜·布奇 Elena Bucci
      马可·斯格罗索 Marco Sgrosso
      安德列‧艾席蒙 André Aciman
      彼得·斯皮尔斯 Peter Spears

◎简  介

  
  故事发生在八十年代的意大利里维埃拉,每年夏天,十七岁的少年艾力奥(提莫西·查拉梅 Timothée Chalamet 饰)都会跟家人一起来此地度假。今年,和他们共享假日时光的,还有来自美国的奥利弗(艾米·汉莫 Armie Hammer 饰),高大英俊热情开朗的奥利弗很快就获得了艾力奥一家人的喜爱。
  
  随着时间的推移,艾力奥和奥利弗之间渐渐产生了致命的吸引力,但性别和年龄的桎梏让他们迟迟无法跨出那关键的一步,与此同时,单纯善良的少女马奇娅(艾斯特·加莱尔 Esther Garrel 饰)也向艾力奥奉献着自己的感情和身体。最终,汹涌的激情冲破了艾力奥和奥利弗之间的防线,两人开始了一段注定不会有结果的恋情。
  

◎获奖情况

  第90届奥斯卡金像奖 (2018)
  最佳影片(提名) 艾米莉·乔治斯 / 马可·莫拉比托 / 卢卡·瓜达尼诺 / 彼得·斯皮尔斯
  最佳男主角(提名) 提莫西·查拉梅
  最佳改编剧本 詹姆斯·伊沃里
  最佳原创歌曲(提名) 苏菲洋·斯蒂文斯
  
  第67届柏林国际电影节 (2017)
  泰迪熊奖最佳电影(提名) 卢卡·瓜达尼诺
  
  第75届金球奖 (2018)
  电影类最佳剧情片(提名)
  电影类剧情片最佳男主角(提名) 提莫西·查拉梅
  电影类最佳男配角(提名) 艾米·汉莫
  
  第71届英国电影学院奖 (2018)
  电影奖最佳影片(提名)
  电影奖最佳导演(提名) 卢卡·瓜达尼诺
  电影奖最佳男主角(提名) 提莫西·查拉梅
  电影奖最佳改编剧本 詹姆斯·伊沃里
  
  第31届欧洲电影奖 (2018)
  观众选择奖
  
  第64届意大利大卫奖 (2019)
  最佳影片(提名)
  最佳导演(提名) 卢卡·瓜达尼诺
  最佳改编剧本 沃尔特·法萨诺 / 卢卡·瓜达尼诺 / 詹姆斯·伊沃里
  最佳制片人(提名)
  最佳摄影(提名) 萨永普·穆克迪普罗
  最佳原创歌曲
  最佳美术设计(提名)
  最佳服装设计(提名)
  最佳化妆(提名)
  最佳发型设计(提名)
  最佳剪辑(提名)
  最佳音效(提名)
  
  第42届多伦多国际电影节 (2017)
  观众选择奖(提名)
  
  第27届MTV电影奖 (2018)
  MTV电影奖最佳表演(提名) 提莫西·查拉梅
  
  第24届美国演员工会奖 (2018)
  电影奖最佳男主角(提名) 提莫西·查拉梅
  
  第70届美国编剧工会奖 (2018)
  电影奖最佳改编剧本 詹姆斯·伊沃里
  
  第29届美国制片人工会奖 (2018)
  最佳电影制片人奖(提名)
  
  第83届纽约影评人协会奖 (2017)
  最佳男主角 提莫西·查拉梅
  
  第89届美国国家评论协会奖 (2017)
  最佳新人男演员 提莫西·查拉梅
  年度佳片
  
  第23届美国评论家选择电影奖 (2018)
  最佳影片(提名)
  最佳导演(提名) 卢卡·瓜达尼诺
  最佳男主角(提名) 提莫西·查拉梅
  最佳男配角(提名) 迈克尔·斯图巴 / 艾米·汉莫
  最佳改编剧本 詹姆斯·伊沃里
  最佳摄影(提名) 萨永普·穆克迪普罗
  最佳歌曲(提名)
  
  第33届美国独立精神奖 (2018)
  最佳影片(提名)
  最佳导演(提名) 卢卡·瓜达尼诺
  最佳男主角 提莫西·查拉梅
  最佳男配角(提名) 艾米·汉莫
  最佳摄影
  最佳剪辑(提名)
  
  第27届哥谭独立电影奖 (2017)
  最佳影片
  年度突破演员 提莫西·查拉梅
  最佳剧本(提名) 詹姆斯·伊沃里
  
  第18届美国电影学会奖 (2017)
  年度佳片
  
  第22届金卫星奖 (2018)
  电影部门最佳剧情片(提名)
  电影部门最佳男配角(提名) 艾米·汉莫
  电影部门最佳改编剧本(提名) 詹姆斯·伊沃里
  
  第21届好莱坞电影奖 (2017)
  年度突破男演员 提莫西·查拉梅
  
  第52届美国国家影评人协会奖 (2018)
  最佳男主角(提名) 提莫西·查拉梅
  最佳男配角(提名) 迈克尔·斯图巴
  
  第43届洛杉矶影评人协会奖 (2017)
  最佳影片 卢卡·瓜达尼诺
  最佳导演 卢卡·瓜达尼诺
  最佳男主角 提莫西·查拉梅
  
  第30届芝加哥影评人协会奖 (2017)
  最佳影片(提名)
  最佳导演(提名) 卢卡·瓜达尼诺
  最佳男主角 提莫西·查拉梅
  最佳男配角(提名) 艾米·汉莫 / 迈克尔·斯图巴
  最佳改编剧本 詹姆斯·伊沃里
  最佳剪辑(提名) 沃尔特·法萨诺
  最具潜力演员 提莫西·查拉梅
  
  第21届美国在线影评人协会奖 (2017)
  最佳影片(提名)
  最佳男主角(提名) 提莫西·查拉梅
  最佳男配角(提名) 艾米·汉莫 / 迈克尔·斯图巴
  最佳改编剧本 詹姆斯·伊沃里
  最佳突破表演 提莫西·查拉梅
  
  第4届豆瓣电影年度榜单 (2017)
  评分最高的外语电影(提名)
  最受关注的非院线电影(提名)
  评分最高的欧洲电影(提名)
  评分最高的爱情片
  年度LGBT电影
  年度电影原声(提名)
  12月最受关注电影(提名)

DISC INFO:

Disc Title:     Call.Me.by.Your.Name.2017.2160p.BluRay.HEVC.DTS-HD.MA.5.1-MiXER
Disc Size:      87,883,175,725 bytes
Protection:     AACS2
Extras:         Ultra HD, BD-Java
BDInfo:         0.7.5.9 (compatible layout created by DVDFab 12.0.9.2)

PLAYLIST REPORT:

Name:                   00800.MPLS  
Length:                 2:12:05.917 (h:m:s.ms)
Size:                   81,257,336,832 bytes
Total Bitrate:          82.02 Mbps

(*) Indicates included stream hidden by this playlist.

VIDEO:

Codec                   Bitrate             Description   
-----                   -------             -----------   
MPEG-H HEVC Video       68993 kbps          2160p / 23.976 fps / 16:9 / Main 10 @ Level 5.1 @ High / 4:2:0 / 10 bits / 1000nits / HDR10 / BT.2020
* MPEG-H HEVC Video     2103 kbps (2.96%)   1080p / 23.976 fps / 16:9 / Main 10 @ Level 5.1 @ High / 4:2:0 / 10 bits / 1000nits / Dolby Vision MEL / BT.2020

AUDIO:

Codec                           Language        Bitrate         Description   
-----                           --------        -------         -----------   
DTS-HD Master Audio             English         2087 kbps       5.1 / 48 kHz / 2087 kbps / 16-bit (DTS Core: 5.1 / 48 kHz / 1509 kbps / 16-bit)
DTS-HD Master Audio             French          2087 kbps       5.1 / 48 kHz / 2087 kbps / 16-bit (DTS Core: 5.1 / 48 kHz / 1509 kbps / 16-bit)
DTS-HD Master Audio             Spanish         2087 kbps       5.1 / 48 kHz / 2087 kbps / 16-bit (DTS Core: 5.1 / 48 kHz / 1509 kbps / 16-bit)
Dolby Digital Audio             English         192 kbps        2.0 / 48 kHz / 192 kbps / Dolby Surround

SUBTITLES:

Codec                           Language        Bitrate         Description   
-----                           --------        -------         -----------   
Presentation Graphics           English         20.803 kbps                    
Presentation Graphics           English         14.11 kbps                     
Presentation Graphics           French          13.581 kbps                    
Presentation Graphics           Spanish         16.464 kbps                    
Presentation Graphics           English         54.947 kbps  

Video
ID : 1
ID in the original source medium : 4113 (0x1011)
Format : HEVC
Format/Info : High Efficiency Video Coding
Format profile : Main [email protected]@High
HDR format : Dolby Vision, Version 1.0, dvhe.07.06, BL+EL+RPU, Blu-ray compatible / SMPTE ST 2086, HDR10 compatible
Codec ID : V_MPEGH/ISO/HEVC
Duration : 2 h 12 min
Bit rate : 71.1 Mb/s
Width : 3 840 pixels
Height : 2 160 pixels
Display aspect ratio : 16:9
Frame rate mode : Constant
Frame rate : 23.976 (24000/1001) FPS
Color space : YUV
Chroma subsampling : 4:2:0 (Type 2)
Bit depth : 10 bits
Bits/(Pixel*Frame) : 0.358
Stream size : 65.6 GiB (91%)
Language : English
Default : No
Forced : No
Color range : Limited
Color primaries : BT.2020
Transfer characteristics : PQ
Matrix coefficients : BT.2020 non-constant
Mastering display color primaries : BT.2020
Mastering display luminance : min: 0.0001 cd/m2, max: 1000 cd/m2
Maximum Content Light Level : 2768 cd/m2
Maximum Frame-Average Light Level : 140 cd/m2
Original source medium : Blu-ray

Audio #1
ID : 2
ID in the original source medium : 4352 (0x1100)
Format : DTS XLL
Format/Info : Digital Theater Systems
Commercial name : DTS-HD Master Audio
Codec ID : A_DTS
Duration : 2 h 12 min
Bit rate mode : Variable
Bit rate : 2 087 kb/s
Channel(s) : 6 channels
Channel layout : C L R Ls Rs LFE
Sampling rate : 48.0 kHz
Frame rate : 93.750 FPS (512 SPF)
Bit depth : 16 bits
Compression mode : Lossless
Stream size : 1.93 GiB (3%)
Title : DTS-HD MA 5.1
Language : English
Default : Yes
Forced : No
Original source medium : Blu-ray

Audio #2
ID : 3
Format : AC-3
Format/Info : Audio Coding 3
Commercial name : Dolby Digital
Codec ID : A_AC3
Duration : 2 h 12 min
Bit rate mode : Constant
Bit rate : 640 kb/s
Channel(s) : 6 channels
Channel layout : L R C LFE Ls Rs
Sampling rate : 48.0 kHz
Frame rate : 31.250 FPS (1536 SPF)
Compression mode : Lossy
Stream size : 605 MiB (1%)
Title : DD 5.1
Language : English
Service kind : Complete Main
Default : No
Forced : No

Audio #3
ID : 4
ID in the original source medium : 4353 (0x1101)
Format : DTS XLL
Format/Info : Digital Theater Systems
Commercial name : DTS-HD Master Audio
Codec ID : A_DTS
Duration : 2 h 12 min
Bit rate mode : Variable
Bit rate : 2 087 kb/s
Channel(s) : 6 channels
Channel layout : C L R Ls Rs LFE
Sampling rate : 48.0 kHz
Frame rate : 93.750 FPS (512 SPF)
Bit depth : 16 bits
Compression mode : Lossless
Stream size : 1.93 GiB (3%)
Title : DTS-HD MA 5.1
Language : French
Default : No
Forced : No
Original source medium : Blu-ray

Audio #4
ID : 5
ID in the original source medium : 4354 (0x1102)
Format : DTS XLL
Format/Info : Digital Theater Systems
Commercial name : DTS-HD Master Audio
Codec ID : A_DTS
Duration : 2 h 12 min
Bit rate mode : Variable
Bit rate : 2 087 kb/s
Channel(s) : 6 channels
Channel layout : C L R Ls Rs LFE
Sampling rate : 48.0 kHz
Frame rate : 93.750 FPS (512 SPF)
Bit depth : 16 bits
Compression mode : Lossless
Stream size : 1.93 GiB (3%)
Title : DTS-HD MA 5.1
Language : Spanish
Default : No
Forced : No
Original source medium : Blu-ray

Audio #5
ID : 6
ID in the original source medium : 4355 (0x1103)
Format : AC-3
Format/Info : Audio Coding 3
Commercial name : Dolby Digital
Format settings : Dolby Surround
Codec ID : A_AC3
Duration : 2 h 12 min
Bit rate mode : Constant
Bit rate : 192 kb/s
Channel(s) : 2 channels
Channel layout : L R
Sampling rate : 48.0 kHz
Frame rate : 31.250 FPS (1536 SPF)
Compression mode : Lossy
Stream size : 181 MiB (0%)
Title : DD 2.0
Language : English
Service kind : Complete Main
Default : No
Forced : No
Original source medium : Blu-ray

Text #1
ID : 7
Format : UTF-8
Codec ID : S_TEXT/UTF8
Codec ID/Info : UTF-8 Plain Text
Duration : 2 h 8 min
Bit rate : 29 b/s
Frame rate : 0.117 FPS
Count of elements : 899
Stream size : 28.0 KiB (0%)
Language : English
Default : Yes
Forced : No

Text #2
ID : 8
Format : UTF-8
Codec ID : S_TEXT/UTF8
Codec ID/Info : UTF-8 Plain Text
Duration : 2 h 10 min
Bit rate : 36 b/s
Frame rate : 0.147 FPS
Count of elements : 1148
Stream size : 34.4 KiB (0%)
Title : SDH
Language : English
Default : No
Forced : No

Text #3
ID : 9
ID in the original source medium : 4768 (0x12A0)
Format : PGS
Muxing mode : zlib
Codec ID : S_HDMV/PGS
Codec ID/Info : Picture based subtitle format used on BDs/HD-DVDs
Duration : 2 h 10 min
Bit rate : 21.1 kb/s
Frame rate : 0.305 FPS
Count of elements : 2385
Stream size : 19.7 MiB (0%)
Language : English
Default : No
Forced : No
Original source medium : Blu-ray

Text #4
ID : 10
ID in the original source medium : 4769 (0x12A1)
Format : PGS
Muxing mode : zlib
Codec ID : S_HDMV/PGS
Codec ID/Info : Picture based subtitle format used on BDs/HD-DVDs
Duration : 2 h 8 min
Bit rate : 14.6 kb/s
Frame rate : 0.210 FPS
Count of elements : 1614
Stream size : 13.3 MiB (0%)
Language : English
Default : No
Forced : No
Original source medium : Blu-ray

Text #5
ID : 11
ID in the original source medium : 4770 (0x12A2)
Format : PGS
Muxing mode : zlib
Codec ID : S_HDMV/PGS
Codec ID/Info : Picture based subtitle format used on BDs/HD-DVDs
Duration : 2 h 9 min
Bit rate : 13.9 kb/s
Frame rate : 0.233 FPS
Count of elements : 1806
Stream size : 12.8 MiB (0%)
Language : French
Default : No
Forced : No
Original source medium : Blu-ray

Text #6
ID : 12
ID in the original source medium : 4770 (0x12A2)
Format : PGS
Muxing mode : zlib
Codec ID : S_HDMV/PGS
Codec ID/Info : Picture based subtitle format used on BDs/HD-DVDs
Duration : 2 h 9 min
Bit rate : 2 342 b/s
Frame rate : 0.039 FPS
Count of elements : 300
Stream size : 2.17 MiB (0%)
Language : French
Default : No
Forced : No
Original source medium : Blu-ray

Text #7
ID : 13
ID in the original source medium : 4771 (0x12A3)
Format : PGS
Muxing mode : zlib
Codec ID : S_HDMV/PGS
Codec ID/Info : Picture based subtitle format used on BDs/HD-DVDs
Duration : 2 h 9 min
Bit rate : 16.8 kb/s
Frame rate : 0.274 FPS
Count of elements : 2130
Stream size : 15.6 MiB (0%)
Language : Spanish
Default : No
Forced : No
Original source medium : Blu-ray

Text #8
ID : 14
ID in the original source medium : 4771 (0x12A3)
Format : PGS
Muxing mode : zlib
Codec ID : S_HDMV/PGS
Codec ID/Info : Picture based subtitle format used on BDs/HD-DVDs
Duration : 2 h 9 min
Bit rate : 3 990 b/s
Frame rate : 0.070 FPS
Count of elements : 546
Stream size : 3.69 MiB (0%)
Language : Spanish
Default : No
Forced : No
Original source medium : Blu-ray

Text #9
ID : 15
ID in the original source medium : 4772 (0x12A4)
Format : PGS
Muxing mode : zlib
Codec ID : S_HDMV/PGS
Codec ID/Info : Picture based subtitle format used on BDs/HD-DVDs
Duration : 2 h 11 min
Bit rate : 55.1 kb/s
Frame rate : 0.526 FPS
Count of elements : 4157
Stream size : 51.9 MiB (0%)
Title : COMMENTARY
Language : English
Default : No
Forced : No
Original source medium : Blu-ray

Menu
00:00:00.000 : en:Chapter 01
00:07:35.580 : en:Chapter 02
00:16:20.604 : en:Chapter 03
00:25:02.417 : en:Chapter 04
00:32:38.581 : en:Chapter 05
00:42:23.332 : en:Chapter 06
00:51:15.155 : en:Chapter 07
01:00:19.616 : en:Chapter 08
01:07:07.898 : en:Chapter 09
01:16:56.194 : en:Chapter 10
01:24:01.661 : en:Chapter 11
01:31:26.981 : en:Chapter 12
01:38:04.795 : en:Chapter 13
01:47:03.208 : en:Chapter 14
01:54:35.243 : en:Chapter 15
02:02:37.975 : en:Chapter 16

本帖子中包含更多资源

您需要 登录 才可以下载或查看,没有帐号?立即注册

x
回复

使用道具 举报

0

主题

6

帖子

21

积分

新手上路

Rank: 1

积分
21
发表于 2023-1-17 19:22:49 | 显示全部楼层
感谢楼主分享
回复

使用道具 举报

您需要登录后才可以回帖 登录 | 立即注册

本版积分规则

QQ|Archiver|手机版|小黑屋|原盘天堂 好多盘 点击这里给我发消息

GMT+8, 2023-1-29 10:54 , Processed in 0.042708 second(s), 24 queries .

Powered by Discuz! X3.4

Copyright © 2001-2021, Tencent Cloud.

快速回复 返回顶部 返回列表