请选择 进入手机版 | 继续访问电脑版
本站Q群713428235【盘盘多】已满,请新会员加原盘天堂新官方QQ群709708625【好多盘】,验证信息填写您在论坛的会员名,不填会员名的无法入群哈,进群后修改您的群名片名字为您在论坛的会员名,请务必修改,否则群成员多了不知道您是哪个会员。

原盘天堂

 找回密码
 立即注册
京东商城当当华为商城名牌时尚折扣网,一个新型的网上购物平台,我们每周为您精选3~4个国际知名品牌,商品折扣低至2折限时限量售卖,商品囊括时装、护肤品、箱包、皮具、配饰、香水等等,琳琅满目。亿格瑞A10硬盘播放器 苏宁易购
查看: 61|回复: 0

4k蓝光原盘bdmv 黑潮 英语原版 malcolm.x.1992.2160p.bluray.hevc.dts-hd.ma.5.1[89.74 GB]

[复制链接]

7423

主题

8549

帖子

135万

积分

管理员

Rank: 18Rank: 18Rank: 18Rank: 18Rank: 18

积分
1353705
发表于 2022-12-25 08:39:18 | 显示全部楼层 |阅读模式








◎译  名 黑潮/马尔科姆 X/马尔科姆·艾克斯
◎片  名 Malcolm X
◎年  代 1992
◎产  地 美国/日本
◎类  别 剧情/传记/历史
◎语  言 英语
◎上映日期 1992-11-18(美国)
◎IMDb评分 7.7/10 from 95832 users
◎IMDb链接 https://www.imdb.com/title/tt0104797/
◎豆瓣评分 8.1/10 from 3890 users
◎豆瓣链接 https://douban.com/subject/1292681/
◎片  长 202 分钟
◎导  演 斯派克·李 Spike Lee
◎编  剧 阿诺德·珀尔 Arnold Perl / 斯派克·李 Spike Lee
◎主  演 丹泽尔·华盛顿 Denzel Washington
      安吉拉·贝塞特 Angela Bassett
      阿尔伯特·海尔 Albert Hall
      小阿尔·弗里曼 Al Freeman Jr.
      斯派克·李 Spike Lee
      纳尔逊·曼德拉 Nelson Mandela
      吉安卡罗·埃斯波西托 Giancarlo Esposito
      德尔罗伊·林多 Delroy Lindo
      史蒂夫·怀特 Steve White
      约翰·大卫·华盛顿 John David Washington
      克里斯托弗·普卢默 Christopher Plummer
      马丁·唐文 Martin Donovan
      George T. Odom George T. Odom
      迈克尔·库伦 Michael Cullen
      Zakee Howze Zakee Howze
      Fracaswell Hyman Fracaswell Hyman
      艾丽斯·里特尔·托马斯 Iris Little Thomas
      Peewee Love Peewee Love
      Norma Miller Norma Miller
      户田惠子 Keiko Toda

◎简  介

  
  迈尔肯(丹泽尔•华盛顿 Denzel Washington 饰)出生于一个黑白通婚的家庭,其父是黑人牧师,其母是无偏见的白人。但是当时,美国种族矛盾激化,3K党经常骚扰他家,在他的幼小心灵中种下了复仇的种子。迈尔肯长大后,混迹于街巷酒吧之中,甚至染上了毒品、偷盗等恶习。一次偶然的机会,迈尔肯与白人女子索菲亚相遇,但这段爱情因种族偏见而夭折。迈尔肯因犯罪锒铛入狱,正当他处于困境之时,一位黑人教徒引领他皈依了伊斯兰教,这也成为他人生的转捩点。他通过阅读大量书籍,逐渐了解了种族歧视的文化根源,并多次在公开场合宣扬黑人要独立、对白人复仇的激进主张,引起轩然大波。迈尔肯成为很多人的眼中钉,甚至遭遇了背叛,引来了灭顶之灾……
  

◎获奖情况

  第65届奥斯卡金像奖 (1993)
  最佳男主角(提名) 丹泽尔·华盛顿
  最佳服装设计(提名) 露丝·E·卡特
  
  第43届柏林国际电影节 (1993)
  金熊奖最佳影片(提名) 斯派克·李
  银熊奖最佳男演员 丹泽尔·华盛顿
  
  第50届金球奖 (1993)
  电影类剧情片最佳男主角(提名) 丹泽尔·华盛顿

DISC INFO:

Disc Title:     Malcolm.X.1992.2160p.BluRay.HEVC.DTS-HD.MA.5.1-KRUPPE
Disc Size:      96,353,606,284 bytes
Protection:     AACS2
Extras:         Ultra HD, BD-Java
BDInfo:         0.7.5.9 (compatible layout created by DVDFab 12.0.9.1)

PLAYLIST REPORT:

Name:                   00001.MPLS  
Length:                 3:21:53.100 (h:m:s.ms)
Size:                   96,196,270,080 bytes
Total Bitrate:          63.53 Mbps

(*) Indicates included stream hidden by this playlist.

VIDEO:

Codec                   Bitrate             Description   
-----                   -------             -----------   
MPEG-H HEVC Video       50412 kbps          2160p / 23.976 fps / 16:9 / Main 10 @ Level 5.1 @ High / 4:2:0 / 10 bits / 1000nits / HDR10 / BT.2020
* MPEG-H HEVC Video     5709 kbps (10.17%)  1080p / 23.976 fps / 16:9 / Main 10 @ Level 5.1 @ High / 4:2:0 / 10 bits / 1000nits / Dolby Vision FEL / BT.2020

AUDIO:

Codec                           Language        Bitrate         Description   
-----                           --------        -------         -----------   
DTS-HD Master Audio             English         4136 kbps       5.1 / 48 kHz / 4136 kbps / 24-bit (DTS Core: 5.1 / 48 kHz / 1509 kbps / 24-bit)
Dolby Digital Audio             English         192 kbps        2.0 / 48 kHz / 192 kbps

SUBTITLES:

Codec                           Language        Bitrate         Description   
-----                           --------        -------         -----------   
Presentation Graphics           English         75.387 kbps   


Video
ID : 1
ID in the original source medium : 4113 (0x1011)
Format : HEVC
Format/Info : High Efficiency Video Coding
Format profile : Main [email protected]@High
HDR format : Dolby Vision, Version 1.0, dvhe.07.06, BL+EL+RPU, Blu-ray compatible / SMPTE ST 2086, HDR10 compatible
Codec ID : V_MPEGH/ISO/HEVC
Duration : 3 h 21 min
Bit rate : 56.1 Mb/s
Width : 3 840 pixels
Height : 2 160 pixels
Display aspect ratio : 16:9
Frame rate mode : Constant
Frame rate : 23.976 (24000/1001) FPS
Color space : YUV
Chroma subsampling : 4:2:0 (Type 2)
Bit depth : 10 bits
Bits/(Pixel*Frame) : 0.282
Stream size : 79.1 GiB (92%)
Language : English
Default : No
Forced : No
Color range : Limited
Color primaries : BT.2020
Transfer characteristics : PQ
Matrix coefficients : BT.2020 non-constant
Mastering display color primaries : Display P3
Mastering display luminance : min: 0.0001 cd/m2, max: 1000 cd/m2
Maximum Content Light Level : 1000 cd/m2
Maximum Frame-Average Light Level : 289 cd/m2
Original source medium : Blu-ray

Audio #1
ID : 2
ID in the original source medium : 4352 (0x1100)
Format : DTS XLL
Format/Info : Digital Theater Systems
Commercial name : DTS-HD Master Audio
Codec ID : A_DTS
Duration : 3 h 21 min
Bit rate mode : Variable
Bit rate : 4 136 kb/s
Channel(s) : 6 channels
Channel layout : C L R Ls Rs LFE
Sampling rate : 48.0 kHz
Frame rate : 93.750 FPS (512 SPF)
Bit depth : 24 bits
Compression mode : Lossless
Stream size : 5.83 GiB (7%)
Title : DTS-HD MA 5.1
Language : English
Default : Yes
Forced : No
Original source medium : Blu-ray

Audio #2
ID : 3
Format : AC-3
Format/Info : Audio Coding 3
Commercial name : Dolby Digital
Codec ID : A_AC3
Duration : 3 h 21 min
Bit rate mode : Constant
Bit rate : 640 kb/s
Channel(s) : 6 channels
Channel layout : L R C LFE Ls Rs
Sampling rate : 48.0 kHz
Frame rate : 31.250 FPS (1536 SPF)
Compression mode : Lossy
Stream size : 924 MiB (1%)
Title : DD 5.1
Language : English
Service kind : Complete Main
Default : No
Forced : No

Audio #3
ID : 4
ID in the original source medium : 4353 (0x1101)
Format : AC-3
Format/Info : Audio Coding 3
Commercial name : Dolby Digital
Codec ID : A_AC3
Duration : 3 h 21 min
Bit rate mode : Constant
Bit rate : 192 kb/s
Channel(s) : 2 channels
Channel layout : L R
Sampling rate : 48.0 kHz
Frame rate : 31.250 FPS (1536 SPF)
Compression mode : Lossy
Stream size : 277 MiB (0%)
Title : DD 2.0
Language : English
Service kind : Complete Main
Default : No
Forced : No
Original source medium : Blu-ray

Text #1
ID : 5
Format : UTF-8
Codec ID : S_TEXT/UTF8
Codec ID/Info : UTF-8 Plain Text
Duration : 3 h 21 min
Bit rate : 81 b/s
Frame rate : 0.267 FPS
Count of elements : 3229
Stream size : 120 KiB (0%)
Language : English
Default : Yes
Forced : No

Text #2
ID : 6
Format : UTF-8
Codec ID : S_TEXT/UTF8
Codec ID/Info : UTF-8 Plain Text
Duration : 3 h 21 min
Bit rate : 88 b/s
Frame rate : 0.286 FPS
Count of elements : 3464
Stream size : 130 KiB (0%)
Title : SDH
Language : English
Default : No
Forced : No

Text #3
ID : 7
ID in the original source medium : 4768 (0x12A0)
Format : PGS
Muxing mode : zlib
Codec ID : S_HDMV/PGS
Codec ID/Info : Picture based subtitle format used on BDs/HD-DVDs
Duration : 3 h 21 min
Bit rate : 75.5 kb/s
Frame rate : 0.580 FPS
Count of elements : 7019
Stream size : 109 MiB (0%)
Language : English
Default : No
Forced : No
Original source medium : Blu-ray

Menu
00:00:00.000 : en:Chapter 01
00:03:00.597 : en:Chapter 02
00:10:16.324 : en:Chapter 03
00:18:26.105 : en:Chapter 04
00:21:45.470 : en:Chapter 05
00:28:08.186 : en:Chapter 06
00:36:31.189 : en:Chapter 07
00:39:57.186 : en:Chapter 08
00:45:41.029 : en:Chapter 09
00:50:06.837 : en:Chapter 10
01:00:40.428 : en:Chapter 11
01:08:21.263 : en:Chapter 12
01:18:01.259 : en:Chapter 13
01:25:43.012 : en:Chapter 14
01:27:58.898 : en:Chapter 15
01:32:08.731 : en:Chapter 16
01:36:11.974 : en:Chapter 17
01:41:01.472 : en:Chapter 18
01:49:06.915 : en:Chapter 19
01:54:03.086 : en:Chapter 20
01:56:59.053 : en:Chapter 21
02:02:50.363 : en:Chapter 22
02:13:29.501 : en:Chapter 23
02:19:18.808 : en:Chapter 24
02:25:59.542 : en:Chapter 25
02:29:38.803 : en:Chapter 26
02:34:14.286 : en:Chapter 27
02:42:39.666 : en:Chapter 28
02:45:58.698 : en:Chapter 29
02:50:56.287 : en:Chapter 30
02:56:52.018 : en:Chapter 31
03:07:03.170 : en:Chapter 32
03:12:35.252 : en:Chapter 33

本帖子中包含更多资源

您需要 登录 才可以下载或查看,没有帐号?立即注册

x
回复

使用道具 举报

您需要登录后才可以回帖 登录 | 立即注册

本版积分规则

QQ|Archiver|手机版|小黑屋|原盘天堂 好多盘 点击这里给我发消息

GMT+8, 2023-1-29 09:48 , Processed in 0.042567 second(s), 24 queries .

Powered by Discuz! X3.4

Copyright © 2001-2021, Tencent Cloud.

快速回复 返回顶部 返回列表