请选择 进入手机版 | 继续访问电脑版
本站Q群713428235【盘盘多】已满,请新会员加原盘天堂新官方QQ群709708625【好多盘】,验证信息填写您在论坛的会员名,不填会员名的无法入群哈,进群后修改您的群名片名字为您在论坛的会员名,请务必修改,否则群成员多了不知道您是哪个会员。

原盘天堂

 找回密码
 立即注册
京东商城当当华为商城名牌时尚折扣网,一个新型的网上购物平台,我们每周为您精选3~4个国际知名品牌,商品折扣低至2折限时限量售卖,商品囊括时装、护肤品、箱包、皮具、配饰、香水等等,琳琅满目。亿格瑞A10硬盘播放器 苏宁易购
查看: 70|回复: 0

4k蓝光原盘bdmv 罗拉快跑 英语原版 run.lola.run.1998.german.2160p.bluray.hevc.dts-hd.ma.5.1[53.72 GB]

[复制链接]

7423

主题

8549

帖子

135万

积分

管理员

Rank: 18Rank: 18Rank: 18Rank: 18Rank: 18

积分
1353705
发表于 2022-12-25 08:08:17 | 显示全部楼层 |阅读模式








◎译  名 罗拉快跑/疾走罗拉/Run Lola Run
◎片  名 Lola rennt
◎年  代 1998
◎产  地 德国
◎类  别 动作/惊悚/犯罪
◎语  言 德语
◎上映日期 1998-08-20(德国)
◎IMDb评分 7.7/10 from 200177 users
◎IMDb链接 https://www.imdb.com/title/tt0130827/
◎豆瓣评分 8.1/10 from 227464 users
◎豆瓣链接 https://douban.com/subject/1292275/
◎片  长 81分钟
◎导  演 汤姆·提克威 Tom Tykwer
◎编  剧 汤姆·提克威 Tom Tykwer
◎主  演 弗朗卡·波滕特 Franka Potente
      莫里兹·布雷多 Moritz Bleibtreu
      赫伯特·克瑙普 Herbert Knaup
      妮娜·皮媞 Nina Petri
      阿敏·罗德 Armin Rohde
      约阿希姆·克罗尔 Joachim Król
      路德格·皮斯特 Ludger Pistor
      苏珊娜·冯·博尔索迪 Suzanne von Borsody
      塞巴斯蒂安·席佩尔 Sebastian Schipper
      朱丽叶·林迪希 Julia Lindig
      拉尔斯·鲁道夫 Lars Rudolph
      海诺·费尔希 Heino Ferch
      沃尔克哈特·巴福 Volkhart Buff

◎简  介

  
  罗拉(弗兰卡•波滕特 饰)和曼尼(莫里兹•克雷多 饰)是一对年轻的恋人,其中曼尼是一个不务正业的小混混,而罗拉则是相信“天大的事情有爱情顶着”的爱情至上主义者。
  
  一天,曼尼为老大完成一项钻石交易,带着装有10万马克的钱袋等候罗拉的接应,然而罗拉的自行车被人抢走,耽误了约定的接应时间,曼尼只好乘地铁回去。在地铁车厢里,曼尼扶起身边的乞丐,同时,看见两名警察向他走来。慌乱中,曼尼下了车,竟然把钱袋忘在了车厢里。显然,钱袋被乞丐拿走了。此时距离曼尼和老大约定见面交钱的时间只剩下20分钟,如果20分钟之内筹集不到10万马克,曼尼就会被老大杀死。走投无路的曼尼打电话向罗拉求救,如果罗拉20分钟之内不能赶到,曼尼只能铤而走险抢劫电话亭对面的超市。
  
  考验罗拉爱情的时候到了,为了在20分钟内筹到10万马克,救出曼尼,她狂奔在向银行家父亲求助的路上。
  

◎获奖情况

  第55届威尼斯电影节 (1998)
  主竞赛单元金狮奖(提名) 汤姆·提克威
  
  第53届英国电影学院奖 (2000)
  电影奖最佳非英语片(提名) 汤姆·提克威 / 斯特凡·阿恩特

DISC INFO:

Disc Title:     Run.Lola.Run.1998.GERMAN.2160p.BluRay.HEVC.DTS-HD.MA.5.1-MiXER
Disc Size:      57,677,657,752 bytes
Protection:     AACS2
Extras:         Ultra HD, BD-Java
BDInfo:         0.7.5.9 (compatible layout created by DVDFab 12.0.9.1)

PLAYLIST REPORT:

Name:                   00001.MPLS  
Length:                 1:20:10.805 (h:m:s.ms)
Size:                   48,126,861,312 bytes
Total Bitrate:          80.03 Mbps

(*) Indicates included stream hidden by this playlist.

VIDEO:

Codec                   Bitrate             Description   
-----                   -------             -----------   
MPEG-H HEVC Video       66492 kbps          2160p / 23.976 fps / 16:9 / Main 10 @ Level 5.1 @ High / 4:2:0 / 10 bits / 1000nits / HDR10 / BT.2020
* MPEG-H HEVC Video     2090 kbps (3.05%)   1080p / 23.976 fps / 16:9 / Main 10 @ Level 5.1 @ High / 4:2:0 / 10 bits / 1000nits / Dolby Vision FEL / BT.2020

AUDIO:

Codec                           Language        Bitrate         Description   
-----                           --------        -------         -----------   
DTS-HD Master Audio             German          2231 kbps       5.1 / 48 kHz / 2231 kbps / 16-bit (DTS Core: 5.1 / 48 kHz / 1509 kbps / 16-bit)
DTS-HD Master Audio             English         2222 kbps       5.1 / 48 kHz / 2222 kbps / 16-bit (DTS Core: 5.1 / 48 kHz / 1509 kbps / 16-bit)
DTS-HD Master Audio             Spanish         2219 kbps       5.1 / 48 kHz / 2219 kbps / 16-bit (DTS Core: 5.1 / 48 kHz / 1509 kbps / 16-bit)
Dolby Digital Audio             German          192 kbps        2.0 / 48 kHz / 192 kbps
Dolby Digital Audio             English         192 kbps        2.0 / 48 kHz / 192 kbps

SUBTITLES:

Codec                           Language        Bitrate         Description   
-----                           --------        -------         -----------   
Presentation Graphics           English         21.623 kbps                    
Presentation Graphics           English         15.337 kbps                    
Presentation Graphics           Spanish         15.777 kbps                    
Presentation Graphics           English         63.37 kbps                     
Presentation Graphics           English         67.282 kbps   


Video
ID : 1
ID in the original source medium : 4113 (0x1011)
Format : HEVC
Format/Info : High Efficiency Video Coding
Format profile : Main [email protected]@High
HDR format : Dolby Vision, Version 1.0, dvhe.07.06, BL+EL+RPU, Blu-ray compatible / SMPTE ST 2086, HDR10 compatible
Codec ID : V_MPEGH/ISO/HEVC
Duration : 1 h 20 min
Bit rate : 68.6 Mb/s
Width : 3 840 pixels
Height : 2 160 pixels
Display aspect ratio : 16:9
Frame rate mode : Constant
Frame rate : 23.976 (24000/1001) FPS
Color space : YUV
Chroma subsampling : 4:2:0 (Type 2)
Bit depth : 10 bits
Bits/(Pixel*Frame) : 0.345
Stream size : 38.4 GiB (89%)
Language : English
Default : No
Forced : No
Color range : Limited
Color primaries : BT.2020
Transfer characteristics : PQ
Matrix coefficients : BT.2020 non-constant
Mastering display color primaries : BT.2020
Mastering display luminance : min: 0.0001 cd/m2, max: 1000 cd/m2
Maximum Content Light Level : 1088 cd/m2
Maximum Frame-Average Light Level : 369 cd/m2
Original source medium : Blu-ray

Audio #1
ID : 2
ID in the original source medium : 4352 (0x1100)
Format : DTS XLL
Format/Info : Digital Theater Systems
Commercial name : DTS-HD Master Audio
Codec ID : A_DTS
Duration : 1 h 20 min
Bit rate mode : Variable
Bit rate : 2 231 kb/s
Channel(s) : 6 channels
Channel layout : C L R Ls Rs LFE
Sampling rate : 48.0 kHz
Frame rate : 93.750 FPS (512 SPF)
Bit depth : 16 bits
Compression mode : Lossless
Stream size : 1.25 GiB (3%)
Title : DTS-HD MA 5.1
Language : German
Default : Yes
Forced : No
Original source medium : Blu-ray

Audio #2
ID : 3
Format : AC-3
Format/Info : Audio Coding 3
Commercial name : Dolby Digital
Codec ID : A_AC3
Duration : 1 h 20 min
Bit rate mode : Constant
Bit rate : 640 kb/s
Channel(s) : 6 channels
Channel layout : L R C LFE Ls Rs
Sampling rate : 48.0 kHz
Frame rate : 31.250 FPS (1536 SPF)
Compression mode : Lossy
Stream size : 367 MiB (1%)
Language : German
Service kind : Complete Main
Default : No
Forced : No

Audio #3
ID : 4
ID in the original source medium : 4353 (0x1101)
Format : DTS XLL
Format/Info : Digital Theater Systems
Commercial name : DTS-HD Master Audio
Codec ID : A_DTS
Duration : 1 h 20 min
Bit rate mode : Variable
Bit rate : 2 222 kb/s
Channel(s) : 6 channels
Channel layout : C L R Ls Rs LFE
Sampling rate : 48.0 kHz
Frame rate : 93.750 FPS (512 SPF)
Bit depth : 16 bits
Compression mode : Lossless
Stream size : 1.24 GiB (3%)
Title : DTS-HD MA 5.1
Language : English
Default : No
Forced : No
Original source medium : Blu-ray

Audio #4
ID : 5
Format : AC-3
Format/Info : Audio Coding 3
Commercial name : Dolby Digital
Codec ID : A_AC3
Duration : 1 h 20 min
Bit rate mode : Constant
Bit rate : 640 kb/s
Channel(s) : 6 channels
Channel layout : L R C LFE Ls Rs
Sampling rate : 48.0 kHz
Frame rate : 31.250 FPS (1536 SPF)
Compression mode : Lossy
Stream size : 367 MiB (1%)
Language : English
Service kind : Complete Main
Default : No
Forced : No

Audio #5
ID : 6
ID in the original source medium : 4354 (0x1102)
Format : DTS XLL
Format/Info : Digital Theater Systems
Commercial name : DTS-HD Master Audio
Codec ID : A_DTS
Duration : 1 h 20 min
Bit rate mode : Variable
Bit rate : 2 219 kb/s
Channel(s) : 6 channels
Channel layout : C L R Ls Rs LFE
Sampling rate : 48.0 kHz
Frame rate : 93.750 FPS (512 SPF)
Bit depth : 16 bits
Compression mode : Lossless
Stream size : 1.24 GiB (3%)
Title : DTS-HD MA 5.1
Language : Spanish
Default : No
Forced : No
Original source medium : Blu-ray

Audio #6
ID : 7
ID in the original source medium : 4355 (0x1103)
Format : AC-3
Format/Info : Audio Coding 3
Commercial name : Dolby Digital
Codec ID : A_AC3
Duration : 1 h 20 min
Bit rate mode : Constant
Bit rate : 192 kb/s
Channel(s) : 2 channels
Channel layout : L R
Sampling rate : 48.0 kHz
Frame rate : 31.250 FPS (1536 SPF)
Compression mode : Lossy
Stream size : 110 MiB (0%)
Title : DD 2.0
Language : German
Service kind : Complete Main
Default : No
Forced : No
Original source medium : Blu-ray

Audio #7
ID : 8
ID in the original source medium : 4356 (0x1104)
Format : AC-3
Format/Info : Audio Coding 3
Commercial name : Dolby Digital
Codec ID : A_AC3
Duration : 1 h 20 min
Bit rate mode : Constant
Bit rate : 192 kb/s
Channel(s) : 2 channels
Channel layout : L R
Sampling rate : 48.0 kHz
Frame rate : 31.250 FPS (1536 SPF)
Compression mode : Lossy
Stream size : 110 MiB (0%)
Title : DD 2.0
Language : English
Service kind : Complete Main
Default : No
Forced : No
Original source medium : Blu-ray

Text #1
ID : 9
Format : UTF-8
Codec ID : S_TEXT/UTF8
Codec ID/Info : UTF-8 Plain Text
Duration : 1 h 18 min
Bit rate : 33 b/s
Frame rate : 0.138 FPS
Count of elements : 645
Stream size : 19.4 KiB (0%)
Language : English
Default : Yes
Forced : No

Text #2
ID : 10
Format : UTF-8
Codec ID : S_TEXT/UTF8
Codec ID/Info : UTF-8 Plain Text
Duration : 1 h 18 min
Bit rate : 37 b/s
Frame rate : 0.155 FPS
Count of elements : 724
Stream size : 21.2 KiB (0%)
Title : SDH
Language : English
Default : No
Forced : No

Text #3
ID : 11
ID in the original source medium : 4768 (0x12A0)
Format : PGS
Muxing mode : zlib
Codec ID : S_HDMV/PGS
Codec ID/Info : Picture based subtitle format used on BDs/HD-DVDs
Duration : 1 h 18 min
Bit rate : 22.2 kb/s
Frame rate : 0.325 FPS
Count of elements : 1522
Stream size : 12.4 MiB (0%)
Language : English
Default : No
Forced : No
Original source medium : Blu-ray

Text #4
ID : 12
ID in the original source medium : 4769 (0x12A1)
Format : PGS
Muxing mode : zlib
Codec ID : S_HDMV/PGS
Codec ID/Info : Picture based subtitle format used on BDs/HD-DVDs
Duration : 1 h 15 min
Bit rate : 16.4 kb/s
Frame rate : 0.254 FPS
Count of elements : 1146
Stream size : 8.80 MiB (0%)
Language : English
Default : No
Forced : No
Original source medium : Blu-ray

Text #5
ID : 13
ID in the original source medium : 4769 (0x12A1)
Format : PGS
Muxing mode : zlib
Codec ID : S_HDMV/PGS
Codec ID/Info : Picture based subtitle format used on BDs/HD-DVDs
Duration : 55 min 37 s
Bit rate : 450 b/s
Frame rate : 0.007 FPS
Count of elements : 24
Stream size : 184 KiB (0%)
Language : English
Default : No
Forced : No
Original source medium : Blu-ray

Text #6
ID : 14
ID in the original source medium : 4770 (0x12A2)
Format : PGS
Muxing mode : zlib
Codec ID : S_HDMV/PGS
Codec ID/Info : Picture based subtitle format used on BDs/HD-DVDs
Duration : 1 h 15 min
Bit rate : 16.8 kb/s
Frame rate : 0.224 FPS
Count of elements : 1012
Stream size : 9.05 MiB (0%)
Language : Spanish
Default : No
Forced : No
Original source medium : Blu-ray

Text #7
ID : 15
ID in the original source medium : 4770 (0x12A2)
Format : PGS
Muxing mode : zlib
Codec ID : S_HDMV/PGS
Codec ID/Info : Picture based subtitle format used on BDs/HD-DVDs
Duration : 9 min 20 s
Bit rate : 359 b/s
Frame rate : 0.007 FPS
Count of elements : 4
Stream size : 24.6 KiB (0%)
Language : Spanish
Default : No
Forced : No
Original source medium : Blu-ray

Text #8
ID : 16
ID in the original source medium : 4771 (0x12A3)
Format : PGS
Muxing mode : zlib
Codec ID : S_HDMV/PGS
Codec ID/Info : Picture based subtitle format used on BDs/HD-DVDs
Duration : 1 h 16 min
Bit rate : 66.8 kb/s
Frame rate : 0.507 FPS
Count of elements : 2312
Stream size : 36.3 MiB (0%)
Language : English
Default : No
Forced : No
Original source medium : Blu-ray

Text #9
ID : 17
ID in the original source medium : 4772 (0x12A4)
Format : PGS
Muxing mode : zlib
Codec ID : S_HDMV/PGS
Codec ID/Info : Picture based subtitle format used on BDs/HD-DVDs
Duration : 1 h 19 min
Bit rate : 68.0 kb/s
Frame rate : 0.559 FPS
Count of elements : 2664
Stream size : 38.6 MiB (0%)
Language : English
Default : No
Forced : No
Original source medium : Blu-ray

Menu
00:00:00.000 : en:Chapter 01
00:04:58.298 : en:Chapter 02
00:12:05.641 : en:Chapter 03
00:15:31.972 : en:Chapter 04
00:19:40.971 : en:Chapter 05
00:24:18.206 : en:Chapter 06
00:29:42.739 : en:Chapter 07
00:34:46.501 : en:Chapter 08
00:38:20.214 : en:Chapter 09
00:44:28.582 : en:Chapter 10
00:48:05.674 : en:Chapter 11
00:54:59.170 : en:Chapter 12
01:01:21.386 : en:Chapter 13
01:04:59.353 : en:Chapter 14
01:09:45.806 : en:Chapter 15
01:13:33.909 : en:Chapter 16

本帖子中包含更多资源

您需要 登录 才可以下载或查看,没有帐号?立即注册

x
回复

使用道具 举报

您需要登录后才可以回帖 登录 | 立即注册

本版积分规则

QQ|Archiver|手机版|小黑屋|原盘天堂 好多盘 点击这里给我发消息

GMT+8, 2023-1-29 10:54 , Processed in 0.040404 second(s), 24 queries .

Powered by Discuz! X3.4

Copyright © 2001-2021, Tencent Cloud.

快速回复 返回顶部 返回列表