请选择 进入手机版 | 继续访问电脑版
本站Q群713428235【盘盘多】已满,请新会员加原盘天堂新官方QQ群709708625【好多盘】,验证信息填写您在论坛的会员名,不填会员名的无法入群哈,进群后修改您的群名片名字为您在论坛的会员名,请务必修改,否则群成员多了不知道您是哪个会员。

原盘天堂

 找回密码
 立即注册
京东商城当当华为商城名牌时尚折扣网,一个新型的网上购物平台,我们每周为您精选3~4个国际知名品牌,商品折扣低至2折限时限量售卖,商品囊括时装、护肤品、箱包、皮具、配饰、香水等等,琳琅满目。亿格瑞A10硬盘播放器 苏宁易购
查看: 62|回复: 0

4k蓝光原盘bdmv 落难见真情 英语原版 planes.trains.and.automobiles.1987.2160p.bluray.hevc.dts-hd.ma.5.1[58.4 GB]

[复制链接]

7423

主题

8549

帖子

135万

积分

管理员

Rank: 18Rank: 18Rank: 18Rank: 18Rank: 18

积分
1353705
发表于 2022-12-25 07:56:12 | 显示全部楼层 |阅读模式








◎译  名 落难见真情/飞机、火车和汽车/旅行冒险记/一路顺疯
◎片  名 Planes, Trains & Automobiles
◎年  代 1987
◎产  地 美国
◎类  别 剧情/喜剧
◎语  言 英语
◎上映日期 1987-11-25(美国)
◎IMDb评分 7.6/10 from 147040 users
◎IMDb链接 https://www.imdb.com/title/tt0093748/
◎豆瓣评分 7.5/10 from 5744 users
◎豆瓣链接 https://douban.com/subject/1301775/
◎片  长 93分钟
◎导  演 约翰·休斯 John Hughes
◎编  剧 约翰·休斯 John Hughes
◎主  演 史蒂夫·马丁 Steve Martin
      约翰·坎迪 John Candy
      莱拉·罗宾斯 Laila Robins
      迈克尔·麦基恩 Michael McKean
      凯文·贝肯 Kevin Bacon
      迪伦·贝克 Dylan Baker
      卡萝尔·布鲁斯 Carol Bruce
      奥利维娅·伯内特 Olivia Burnette
      戴安娜·道格拉斯 Diana Douglas
      马丁·费雷罗 Martin Ferrero
      拉里·哈金 Larry Hankin
      理查德·赫德 Richard Herd
      马修·劳伦斯 Matthew Lawrence
      伊迪·麦克勒格 Edie McClurg
      George Petrie George Petrie
      加里·莱利 Gary Riley
      查尔斯·泰纳 Charles Tyner
      苏珊·艾萨克斯 Susan Isaacs
      Nicholas Wyman Nicholas Wyman
      Diana Castle Diana Castle
      比尔·厄尔文 Bill Erwin
      本·斯坦 Ben Stein
      Kim Genelle Kim Genelle
      Grant Forsberg Grant Forsberg
      特洛伊·伊万斯 Troy Evans
       Angella Kaye
      黛布拉莱恩 Debra Lamb
       Larry Ludwig
      Daniel Niswander Daniel Niswander
       Peter Austin Noto
      Ken Tipton Ken Tipton
      莱曼·沃德 Lyman Ward
      Chino 'Fats' Williams Chino 'Fats' Williams
      威廉·温德姆 William Windom

◎简  介

  
  为了和家人一同庆祝感恩节,广告商人尼尔(史蒂夫·马丁 Steve Martin 饰)坐上了飞往芝加哥的飞机,在机场,一个名叫德尔(约翰·坎迪 John Candy 饰)的粗俗男子让他无法忍受,不幸的是,他们在飞机上竟毗邻而坐。本以为忍过两个半小时的旅程就可逃出生天,没想到暴风雪的袭来让飞机更改了航线。
  
  在误打误撞之中,尼尔和德尔住进了同一个房间,屋漏偏逢连夜雨,小偷的造访又让他们丢掉了所有的家当,无奈之下,两人只得搭火车回家。随着时间的流逝,尼尔发现德尔的个性并非表面上看起来的那般教人无法忍受,两人的关系也渐渐亲密起来。可是,事情并没有就此结束,在一次又一次的意外中,尼尔觉得家离自己越来越远。
  

DISC INFO:

Disc Title:     Planes.Trains.And.Automobiles.1987.2160p.BluRay.HEVC.DTS-HD.MA.5.1-ESiR
Disc Size:      62,687,408,658 bytes
Protection:     AACS2
Extras:         Ultra HD, BD-Java
BDInfo:         0.7.5.9 (compatible layout created by DVDFab 12.0.9.1)

PLAYLIST REPORT:

Name:                   00040.MPLS  
Length:                 1:32:28.918 (h:m:s.ms)
Size:                   55,959,496,704 bytes
Total Bitrate:          80.68 Mbps

(*) Indicates included stream hidden by this playlist.

VIDEO:

Codec                   Bitrate             Description   
-----                   -------             -----------   
MPEG-H HEVC Video       66526 kbps          2160p / 23.976 fps / 16:9 / Main 10 @ Level 5.1 @ High / 4:2:0 / 10 bits / 4000nits / HDR10 / BT.2020
* MPEG-H HEVC Video     3935 kbps (5.59%)   1080p / 23.976 fps / 16:9 / Main 10 @ Level 5.1 @ High / 4:2:0 / 10 bits / 4000nits / Dolby Vision FEL / BT.2020

AUDIO:

Codec                           Language        Bitrate         Description   
-----                           --------        -------         -----------   
DTS-HD Master Audio             English         4019 kbps       5.1 / 48 kHz / 4019 kbps / 24-bit (DTS Core: 5.1 / 48 kHz / 1509 kbps / 24-bit)
Dolby Digital Audio             English         640 kbps        5.1 / 48 kHz / 640 kbps
Dolby Digital Audio             German          224 kbps        2.0 / 48 kHz / 224 kbps / Dolby Surround
Dolby Digital Audio             Spanish         224 kbps        2.0 / 48 kHz / 224 kbps / Dolby Surround
Dolby Digital Audio             Spanish         224 kbps        2.0 / 48 kHz / 224 kbps
Dolby Digital Audio             French          224 kbps        2.0 / 48 kHz / 224 kbps / Dolby Surround
Dolby Digital Audio             Italian         224 kbps        2.0 / 48 kHz / 224 kbps / Dolby Surround
Dolby Digital Audio             Portuguese      224 kbps        2.0 / 48 kHz / 224 kbps

SUBTITLES:

Codec                           Language        Bitrate         Description   
-----                           --------        -------         -----------   
Presentation Graphics           English         35.022 kbps                    
Presentation Graphics           English         43.124 kbps                    
Presentation Graphics           Danish          28.253 kbps                    
Presentation Graphics           German          30.715 kbps                    
Presentation Graphics           Spanish         27.019 kbps                    
Presentation Graphics           Spanish         32.253 kbps                    
Presentation Graphics           French          27.946 kbps                    
Presentation Graphics           Italian         28.972 kbps                    
Presentation Graphics           Japanese        20.513 kbps                    
Presentation Graphics           Dutch           28.239 kbps                    
Presentation Graphics           Norwegian       26.885 kbps                    
Presentation Graphics           Portuguese      28.327 kbps                    
Presentation Graphics           Finnish         28.603 kbps                    
Presentation Graphics           Swedish         24.049 kbps   


Video
ID : 1
ID in the original source medium : 4113 (0x1011)
Format : HEVC
Format/Info : High Efficiency Video Coding
Format profile : Main [email protected]@High
HDR format : Dolby Vision, Version 1.0, dvhe.07.06, BL+EL+RPU, Blu-ray compatible / SMPTE ST 2086, HDR10 compatible
Codec ID : V_MPEGH/ISO/HEVC
Duration : 1 h 32 min
Bit rate : 70.5 Mb/s
Width : 3 840 pixels
Height : 2 160 pixels
Display aspect ratio : 16:9
Frame rate mode : Constant
Frame rate : 23.976 (24000/1001) FPS
Color space : YUV
Chroma subsampling : 4:2:0 (Type 2)
Bit depth : 10 bits
Bits/(Pixel*Frame) : 0.354
Stream size : 45.5 GiB (91%)
Language : English
Default : No
Forced : No
Color range : Limited
Color primaries : BT.2020
Transfer characteristics : PQ
Matrix coefficients : BT.2020 non-constant
Mastering display color primaries : Display P3
Mastering display luminance : min: 0.0050 cd/m2, max: 4000 cd/m2
Maximum Content Light Level : 1000 cd/m2
Maximum Frame-Average Light Level : 337 cd/m2
Original source medium : Blu-ray

Audio #1
ID : 2
ID in the original source medium : 4352 (0x1100)
Format : DTS XLL
Format/Info : Digital Theater Systems
Commercial name : DTS-HD Master Audio
Codec ID : A_DTS
Duration : 1 h 32 min
Bit rate mode : Variable
Bit rate : 4 019 kb/s
Channel(s) : 6 channels
Channel layout : C L R Ls Rs LFE
Sampling rate : 48.0 kHz
Frame rate : 93.750 FPS (512 SPF)
Bit depth : 24 bits
Compression mode : Lossless
Stream size : 2.60 GiB (5%)
Title : DTS-HD MA 5.1
Language : English
Default : Yes
Forced : No
Original source medium : Blu-ray

Audio #2
ID : 3
Format : AC-3
Format/Info : Audio Coding 3
Commercial name : Dolby Digital
Codec ID : A_AC3
Duration : 1 h 32 min
Bit rate mode : Constant
Bit rate : 640 kb/s
Channel(s) : 6 channels
Channel layout : L R C LFE Ls Rs
Sampling rate : 48.0 kHz
Frame rate : 31.250 FPS (1536 SPF)
Compression mode : Lossy
Stream size : 423 MiB (1%)
Title : DD 5.1
Language : English
Service kind : Complete Main
Default : No
Forced : No

Audio #3
ID : 4
ID in the original source medium : 4353 (0x1101)
Format : AC-3
Format/Info : Audio Coding 3
Commercial name : Dolby Digital
Codec ID : A_AC3
Duration : 1 h 32 min
Bit rate mode : Constant
Bit rate : 640 kb/s
Channel(s) : 6 channels
Channel layout : L R C LFE Ls Rs
Sampling rate : 48.0 kHz
Frame rate : 31.250 FPS (1536 SPF)
Compression mode : Lossy
Stream size : 423 MiB (1%)
Title : DD 5.1
Language : English
Service kind : Complete Main
Default : No
Forced : No
Original source medium : Blu-ray

Audio #4
ID : 5
ID in the original source medium : 4354 (0x1102)
Format : AC-3
Format/Info : Audio Coding 3
Commercial name : Dolby Digital
Format settings : Dolby Surround
Codec ID : A_AC3
Duration : 1 h 32 min
Bit rate mode : Constant
Bit rate : 224 kb/s
Channel(s) : 2 channels
Channel layout : L R
Sampling rate : 48.0 kHz
Frame rate : 31.250 FPS (1536 SPF)
Compression mode : Lossy
Stream size : 148 MiB (0%)
Title : DD 2.0
Language : German
Service kind : Complete Main
Default : No
Forced : No
Original source medium : Blu-ray

Audio #5
ID : 6
ID in the original source medium : 4355 (0x1103)
Format : AC-3
Format/Info : Audio Coding 3
Commercial name : Dolby Digital
Format settings : Dolby Surround
Codec ID : A_AC3
Duration : 1 h 32 min
Bit rate mode : Constant
Bit rate : 224 kb/s
Channel(s) : 2 channels
Channel layout : L R
Sampling rate : 48.0 kHz
Frame rate : 31.250 FPS (1536 SPF)
Compression mode : Lossy
Stream size : 148 MiB (0%)
Title : DD 2.0
Language : Spanish
Service kind : Complete Main
Default : No
Forced : No
Original source medium : Blu-ray

Audio #6
ID : 7
ID in the original source medium : 4356 (0x1104)
Format : AC-3
Format/Info : Audio Coding 3
Commercial name : Dolby Digital
Codec ID : A_AC3
Duration : 1 h 32 min
Bit rate mode : Constant
Bit rate : 224 kb/s
Channel(s) : 2 channels
Channel layout : L R
Sampling rate : 48.0 kHz
Frame rate : 31.250 FPS (1536 SPF)
Compression mode : Lossy
Stream size : 148 MiB (0%)
Title : DD 2.0
Language : Spanish
Service kind : Complete Main
Default : No
Forced : No
Original source medium : Blu-ray

Audio #7
ID : 8
ID in the original source medium : 4357 (0x1105)
Format : AC-3
Format/Info : Audio Coding 3
Commercial name : Dolby Digital
Format settings : Dolby Surround
Codec ID : A_AC3
Duration : 1 h 32 min
Bit rate mode : Constant
Bit rate : 224 kb/s
Channel(s) : 2 channels
Channel layout : L R
Sampling rate : 48.0 kHz
Frame rate : 31.250 FPS (1536 SPF)
Compression mode : Lossy
Stream size : 148 MiB (0%)
Title : DD 2.0
Language : French
Service kind : Complete Main
Default : No
Forced : No
Original source medium : Blu-ray

Audio #8
ID : 9
ID in the original source medium : 4358 (0x1106)
Format : AC-3
Format/Info : Audio Coding 3
Commercial name : Dolby Digital
Format settings : Dolby Surround
Codec ID : A_AC3
Duration : 1 h 32 min
Bit rate mode : Constant
Bit rate : 224 kb/s
Channel(s) : 2 channels
Channel layout : L R
Sampling rate : 48.0 kHz
Frame rate : 31.250 FPS (1536 SPF)
Compression mode : Lossy
Stream size : 148 MiB (0%)
Title : DD 2.0
Language : Italian
Service kind : Complete Main
Default : No
Forced : No
Original source medium : Blu-ray

Audio #9
ID : 10
ID in the original source medium : 4359 (0x1107)
Format : AC-3
Format/Info : Audio Coding 3
Commercial name : Dolby Digital
Codec ID : A_AC3
Duration : 1 h 32 min
Bit rate mode : Constant
Bit rate : 224 kb/s
Channel(s) : 2 channels
Channel layout : L R
Sampling rate : 48.0 kHz
Frame rate : 31.250 FPS (1536 SPF)
Compression mode : Lossy
Stream size : 148 MiB (0%)
Title : DD 2.0
Language : Portuguese
Service kind : Complete Main
Default : No
Forced : No
Original source medium : Blu-ray

Text #1
ID : 11
Format : UTF-8
Codec ID : S_TEXT/UTF8
Codec ID/Info : UTF-8 Plain Text
Duration : 1 h 31 min
Bit rate : 58 b/s
Frame rate : 0.192 FPS
Count of elements : 1052
Stream size : 38.8 KiB (0%)
Language : English
Default : Yes
Forced : No

Text #2
ID : 12
Format : UTF-8
Codec ID : S_TEXT/UTF8
Codec ID/Info : UTF-8 Plain Text
Duration : 1 h 32 min
Bit rate : 63 b/s
Frame rate : 0.217 FPS
Count of elements : 1204
Stream size : 43.2 KiB (0%)
Title : SDH
Language : English
Default : No
Forced : No

Text #3
ID : 13
ID in the original source medium : 4768 (0x12A0)
Format : PGS
Muxing mode : zlib
Codec ID : S_HDMV/PGS
Codec ID/Info : Picture based subtitle format used on BDs/HD-DVDs
Duration : 1 h 31 min
Bit rate : 35.6 kb/s
Frame rate : 0.355 FPS
Count of elements : 1940
Stream size : 23.2 MiB (0%)
Language : English
Default : No
Forced : No
Original source medium : Blu-ray

Text #4
ID : 14
ID in the original source medium : 4769 (0x12A1)
Format : PGS
Muxing mode : zlib
Codec ID : S_HDMV/PGS
Codec ID/Info : Picture based subtitle format used on BDs/HD-DVDs
Duration : 1 h 32 min
Bit rate : 43.2 kb/s
Frame rate : 0.438 FPS
Count of elements : 2426
Stream size : 28.5 MiB (0%)
Language : English
Default : No
Forced : No
Original source medium : Blu-ray

Text #5
ID : 15
ID in the original source medium : 4770 (0x12A2)
Format : PGS
Muxing mode : zlib
Codec ID : S_HDMV/PGS
Codec ID/Info : Picture based subtitle format used on BDs/HD-DVDs
Duration : 1 h 31 min
Bit rate : 28.5 kb/s
Frame rate : 0.270 FPS
Count of elements : 1486
Stream size : 18.7 MiB (0%)
Language : Danish
Default : No
Forced : No
Original source medium : Blu-ray

Text #6
ID : 16
ID in the original source medium : 4771 (0x12A3)
Format : PGS
Muxing mode : zlib
Codec ID : S_HDMV/PGS
Codec ID/Info : Picture based subtitle format used on BDs/HD-DVDs
Duration : 1 h 31 min
Bit rate : 30.9 kb/s
Frame rate : 0.269 FPS
Count of elements : 1484
Stream size : 20.3 MiB (0%)
Language : German
Default : No
Forced : No
Original source medium : Blu-ray

Text #7
ID : 17
ID in the original source medium : 4771 (0x12A3)
Format : PGS
Muxing mode : zlib
Codec ID : S_HDMV/PGS
Codec ID/Info : Picture based subtitle format used on BDs/HD-DVDs
Duration : 1 h 31 min
Bit rate : 237 b/s
Frame rate : 0.003 FPS
Count of elements : 18
Stream size : 160 KiB (0%)
Language : German
Default : No
Forced : No
Original source medium : Blu-ray

Text #8
ID : 18
ID in the original source medium : 4772 (0x12A4)
Format : PGS
Muxing mode : zlib
Codec ID : S_HDMV/PGS
Codec ID/Info : Picture based subtitle format used on BDs/HD-DVDs
Duration : 1 h 31 min
Bit rate : 27.2 kb/s
Frame rate : 0.294 FPS
Count of elements : 1622
Stream size : 17.9 MiB (0%)
Language : Spanish
Default : No
Forced : No
Original source medium : Blu-ray

Text #9
ID : 19
ID in the original source medium : 4772 (0x12A4)
Format : PGS
Muxing mode : zlib
Codec ID : S_HDMV/PGS
Codec ID/Info : Picture based subtitle format used on BDs/HD-DVDs
Duration : 1 h 31 min
Bit rate : 294 b/s
Frame rate : 0.005 FPS
Count of elements : 28
Stream size : 198 KiB (0%)
Language : Spanish
Default : No
Forced : No
Original source medium : Blu-ray

Text #10
ID : 20
ID in the original source medium : 4773 (0x12A5)
Format : PGS
Muxing mode : zlib
Codec ID : S_HDMV/PGS
Codec ID/Info : Picture based subtitle format used on BDs/HD-DVDs
Duration : 1 h 31 min
Bit rate : 32.5 kb/s
Frame rate : 0.334 FPS
Count of elements : 1838
Stream size : 21.3 MiB (0%)
Language : Spanish
Default : No
Forced : No
Original source medium : Blu-ray

Text #11
ID : 21
ID in the original source medium : 4773 (0x12A5)
Format : PGS
Muxing mode : zlib
Codec ID : S_HDMV/PGS
Codec ID/Info : Picture based subtitle format used on BDs/HD-DVDs
Duration : 1 h 22 min
Bit rate : 131 b/s
Frame rate : 0.002 FPS
Count of elements : 12
Stream size : 79.2 KiB (0%)
Language : Spanish
Default : No
Forced : No
Original source medium : Blu-ray

Text #12
ID : 22
ID in the original source medium : 4774 (0x12A6)
Format : PGS
Muxing mode : zlib
Codec ID : S_HDMV/PGS
Codec ID/Info : Picture based subtitle format used on BDs/HD-DVDs
Duration : 1 h 31 min
Bit rate : 28.1 kb/s
Frame rate : 0.267 FPS
Count of elements : 1474
Stream size : 18.5 MiB (0%)
Language : French
Default : No
Forced : No
Original source medium : Blu-ray

Text #13
ID : 23
ID in the original source medium : 4774 (0x12A6)
Format : PGS
Muxing mode : zlib
Codec ID : S_HDMV/PGS
Codec ID/Info : Picture based subtitle format used on BDs/HD-DVDs
Duration : 1 h 31 min
Bit rate : 128 b/s
Frame rate : 0.001 FPS
Count of elements : 8
Stream size : 86.8 KiB (0%)
Language : French
Default : No
Forced : No
Original source medium : Blu-ray

Text #14
ID : 24
ID in the original source medium : 4775 (0x12A7)
Format : PGS
Muxing mode : zlib
Codec ID : S_HDMV/PGS
Codec ID/Info : Picture based subtitle format used on BDs/HD-DVDs
Duration : 1 h 31 min
Bit rate : 29.2 kb/s
Frame rate : 0.293 FPS
Count of elements : 1614
Stream size : 19.2 MiB (0%)
Language : Italian
Default : No
Forced : No
Original source medium : Blu-ray

Text #15
ID : 25
ID in the original source medium : 4775 (0x12A7)
Format : PGS
Muxing mode : zlib
Codec ID : S_HDMV/PGS
Codec ID/Info : Picture based subtitle format used on BDs/HD-DVDs
Duration : 1 h 31 min
Bit rate : 331 b/s
Frame rate : 0.003 FPS
Count of elements : 18
Stream size : 223 KiB (0%)
Language : Italian
Default : No
Forced : No
Original source medium : Blu-ray

Text #16
ID : 26
ID in the original source medium : 4776 (0x12A8)
Format : PGS
Muxing mode : zlib
Codec ID : S_HDMV/PGS
Codec ID/Info : Picture based subtitle format used on BDs/HD-DVDs
Duration : 1 h 31 min
Bit rate : 20.7 kb/s
Frame rate : 0.322 FPS
Count of elements : 1772
Stream size : 13.6 MiB (0%)
Language : Japanese
Default : No
Forced : No
Original source medium : Blu-ray

Text #17
ID : 27
ID in the original source medium : 4777 (0x12A9)
Format : PGS
Muxing mode : zlib
Codec ID : S_HDMV/PGS
Codec ID/Info : Picture based subtitle format used on BDs/HD-DVDs
Duration : 1 h 31 min
Bit rate : 28.4 kb/s
Frame rate : 0.268 FPS
Count of elements : 1478
Stream size : 18.7 MiB (0%)
Language : Dutch
Default : No
Forced : No
Original source medium : Blu-ray

Text #18
ID : 28
ID in the original source medium : 4778 (0x12AA)
Format : PGS
Muxing mode : zlib
Codec ID : S_HDMV/PGS
Codec ID/Info : Picture based subtitle format used on BDs/HD-DVDs
Duration : 1 h 31 min
Bit rate : 27.0 kb/s
Frame rate : 0.269 FPS
Count of elements : 1484
Stream size : 17.8 MiB (0%)
Language : Norwegian
Default : No
Forced : No
Original source medium : Blu-ray

Text #19
ID : 29
ID in the original source medium : 4779 (0x12AB)
Format : PGS
Muxing mode : zlib
Codec ID : S_HDMV/PGS
Codec ID/Info : Picture based subtitle format used on BDs/HD-DVDs
Duration : 1 h 31 min
Bit rate : 28.5 kb/s
Frame rate : 0.294 FPS
Count of elements : 1620
Stream size : 18.7 MiB (0%)
Language : Portuguese
Default : No
Forced : No
Original source medium : Blu-ray

Text #20
ID : 30
ID in the original source medium : 4779 (0x12AB)
Format : PGS
Muxing mode : zlib
Codec ID : S_HDMV/PGS
Codec ID/Info : Picture based subtitle format used on BDs/HD-DVDs
Duration : 46 min 48 s
Bit rate : 83 b/s
Frame rate : 0.001 FPS
Count of elements : 4
Stream size : 28.5 KiB (0%)
Language : Portuguese
Default : No
Forced : No
Original source medium : Blu-ray

Text #21
ID : 31
ID in the original source medium : 4780 (0x12AC)
Format : PGS
Muxing mode : zlib
Codec ID : S_HDMV/PGS
Codec ID/Info : Picture based subtitle format used on BDs/HD-DVDs
Duration : 1 h 31 min
Bit rate : 28.8 kb/s
Frame rate : 0.269 FPS
Count of elements : 1484
Stream size : 18.9 MiB (0%)
Language : Finnish
Default : No
Forced : No
Original source medium : Blu-ray

Text #22
ID : 32
ID in the original source medium : 4781 (0x12AD)
Format : PGS
Muxing mode : zlib
Codec ID : S_HDMV/PGS
Codec ID/Info : Picture based subtitle format used on BDs/HD-DVDs
Duration : 1 h 31 min
Bit rate : 24.2 kb/s
Frame rate : 0.269 FPS
Count of elements : 1484
Stream size : 15.9 MiB (0%)
Language : Swedish
Default : No
Forced : No
Original source medium : Blu-ray

Menu
00:00:00.000 : en:Chapter 01
00:02:40.952 : en:Chapter 02
00:07:09.262 : en:Chapter 03
00:12:11.647 : en:Chapter 04
00:15:01.859 : en:Chapter 05
00:17:29.965 : en:Chapter 06
00:20:10.083 : en:Chapter 07
00:27:51.711 : en:Chapter 08
00:32:16.935 : en:Chapter 09
00:35:50.857 : en:Chapter 10
00:39:20.983 : en:Chapter 11
00:41:47.755 : en:Chapter 12
00:43:11.839 : en:Chapter 13
00:45:33.856 : en:Chapter 14
00:49:45.816 : en:Chapter 15
00:51:17.532 : en:Chapter 16
00:55:32.620 : en:Chapter 17
00:57:05.255 : en:Chapter 18
00:59:17.470 : en:Chapter 19
01:01:50.707 : en:Chapter 20
01:06:48.963 : en:Chapter 21
01:09:36.630 : en:Chapter 22
01:15:13.383 : en:Chapter 23
01:18:46.555 : en:Chapter 24
01:20:30.700 : en:Chapter 25
01:24:49.793 : en:Chapter 26
01:27:04.219 : en:Chapter 27

本帖子中包含更多资源

您需要 登录 才可以下载或查看,没有帐号?立即注册

x
回复

使用道具 举报

您需要登录后才可以回帖 登录 | 立即注册

本版积分规则

QQ|Archiver|手机版|小黑屋|原盘天堂 好多盘 点击这里给我发消息

GMT+8, 2023-1-29 09:50 , Processed in 0.058716 second(s), 24 queries .

Powered by Discuz! X3.4

Copyright © 2001-2021, Tencent Cloud.

快速回复 返回顶部 返回列表